Tags
Language
Tags

Lucinda Williams - Southern Soul: From Memphis To Muscle Shoals & More (2021) {Lu's Jukebox In Studio Concert Series, Vol. 2}

Posted By: popsakov
Lucinda Williams - Southern Soul: From Memphis To Muscle Shoals & More (2021) {Lu's Jukebox In Studio Concert Series, Vol. 2}

Lucinda Williams - Southern Soul: From Memphis To Muscle Shoals & More (2021) {Lu's Jukebox In Studio Concert Series, Vol. 2}
EAC Rip | FLAC (Tracks) + Cue + m3u + Log ~ 363 Mb | MP3 CBR320 ~ 167 Mb
Full Scans | 00:45:30 | RAR 5% Recovery
Alternative Folk / Alternative Country Rock / Heartland Rock / Americana
Highway 20 Records #H2008

The second in a series of albums drawn from livestream concerts Lucinda Williams presented to benefit independent music venues hit hard during the COVID-19 pandemic, Lu's Jukebox, Vol. 2: Southern Soul – From Memphis to Muscle Shoals is the sort of album so well-suited to her gifts that one wonders why she didn't do this sooner. As a performer, Williams has never shied away from showing off the influence of vintage blues and R&B, and for this LP, she covers nine classic soul tunes from the 1960s and early '70s, with two ringers added for seasoning: a lean and swampy take on Bobbie Gentry's "Ode to Billy Joe" and a slow, sensuous reimagining of her own "Still I Long for Your Kiss." This material was cut live in the studio with Williams' road band, and they approach this music as true fans who happen to have some ideas of their own. Their love and appreciation for the original recordings is clear, but they bend the songs to suit both Williams' voice and the group's musical personality. The result is a set of performances that pay homage while staking out their own sonic territory. The rough-edged but expressive guitar work from Stuart Mathis and Joshua Grange carries these songs the way keyboards or horns often gave the original recordings their foundation, and bassist Steve Mackey and drummer Fred Eltringham provide a richly beating heart for this music, simply but surely moving the band forward. Williams delivers just like a great soul vocalist while also sounding exactly like herself. She's powerful and passionate without overplaying, she's emotionally eloquent in honest, thoughtful ways, and she often sounds like she's still finding new angles in these songs while she sings, filling her vocals with a sense of adventure and exploration that adds to their power. Recording songs that already exist in definitive performances by the likes of Otis Redding, Percy Sledge, Ann Peebles, or Al Green is either a brave or a foolish move for most musicians, but Lucinda Williams is smart enough and soulful enough to cut these tunes without embarrassing herself, and Southern Soul – From Memphis to Muscle Shoals demonstrates she can honor the great artists who introduced these tunes while making them her own.

~ Mark Deming, All Music

***************

Track List:

01. Games People Play [3:52]
02. You'll Lose a Good Thing [4:01]
03. Ode to Billie Joe [6:00]
04. I Can't Stand the Rain [4:18]
05. Misty Blue [4:33]
06. Main Street Mission [2:53]
07. You Don't Miss Your Water [2:53]
08. It Tears Me Up [3:04]
09. Rainy Night in Georgia [3:53]
10. Take Me to the River [5:30]
11. Still I Long for Your Kiss [4:38]

Exact Audio Copy V1.6 from 23. October 2020

EAC extraction logfile from 10. July 2021, 15:01

Lucinda Williams / Southern Soul: From Memphis to Muscle Shoals & More

Used drive : ASUS BW-12D1S-U Adapter: 1 ID: 0

Read mode : Secure
Utilize accurate stream : Yes
Defeat audio cache : Yes
Make use of C2 pointers : No

Read offset correction : 667
Overread into Lead-In and Lead-Out : No
Fill up missing offset samples with silence : Yes
Delete leading and trailing silent blocks : No
Null samples used in CRC calculations : Yes
Used interface : Native Win32 interface for Win NT & 2000
Gap handling : Appended to previous track

Used output format : User Defined Encoder
Selected bitrate : 1024 kBit/s
Quality : High
Add ID3 tag : No
Command line compressor : C:\Program Files (x86)\Exact Audio Copy\FLAC\FLAC.EXE
Additional command line options : -V -8 -T "Date=%year%" -T "Genre=%genre%" %source%


TOC of the extracted CD

Track | Start | Length | Start sector | End sector
––––––––––––––––––––––––––––-
1 | 0:00.00 | 3:51.65 | 0 | 17389
2 | 3:51.65 | 4:00.72 | 17390 | 35461
3 | 7:52.62 | 5:59.38 | 35462 | 62424
4 | 13:52.25 | 4:17.29 | 62425 | 81728
5 | 18:09.54 | 4:32.49 | 81729 | 102177
6 | 22:42.28 | 2:52.02 | 102178 | 115079
7 | 25:34.30 | 2:52.42 | 115080 | 128021
8 | 28:26.72 | 3:03.09 | 128022 | 141755
9 | 31:30.06 | 3:52.45 | 141756 | 159200
10 | 35:22.51 | 5:29.35 | 159201 | 183910
11 | 40:52.11 | 4:37.19 | 183911 | 204704


Track 1

Filename E:\Torrents of Autumn\Williams, Lucinda [2021] Lu's Jukebox Vol. 2~ Southern Soul — From Memphis to Muscle Shoals\Lucinda Williams - Southern Soul~ From Memphis to Muscle Shoals & More - 01. Games People Play.wav

Pre-gap length 0:00:02.00

Peak level 98.7 %
Extraction speed 4.6 X
Track quality 100.0 %
Test CRC 445DB5D1
Copy CRC 445DB5D1
Copy OK

Track 2

Filename E:\Torrents of Autumn\Williams, Lucinda [2021] Lu's Jukebox Vol. 2~ Southern Soul — From Memphis to Muscle Shoals\Lucinda Williams - Southern Soul~ From Memphis to Muscle Shoals & More - 02. You'll Lose a Good Thing.wav

Peak level 99.6 %
Extraction speed 5.0 X
Track quality 100.0 %
Test CRC 0EF399D0
Copy CRC 0EF399D0
Copy OK

Track 3

Filename E:\Torrents of Autumn\Williams, Lucinda [2021] Lu's Jukebox Vol. 2~ Southern Soul — From Memphis to Muscle Shoals\Lucinda Williams - Southern Soul~ From Memphis to Muscle Shoals & More - 03. Ode to Billie Joe.wav

Peak level 99.9 %
Extraction speed 5.4 X
Track quality 99.9 %
Test CRC 921D0F15
Copy CRC 921D0F15
Copy OK

Track 4

Filename E:\Torrents of Autumn\Williams, Lucinda [2021] Lu's Jukebox Vol. 2~ Southern Soul — From Memphis to Muscle Shoals\Lucinda Williams - Southern Soul~ From Memphis to Muscle Shoals & More - 04. I Can't Stand the Rain.wav

Peak level 98.8 %
Extraction speed 6.2 X
Track quality 100.0 %
Test CRC 4E69152E
Copy CRC 4E69152E
Copy OK

Track 5

Filename E:\Torrents of Autumn\Williams, Lucinda [2021] Lu's Jukebox Vol. 2~ Southern Soul — From Memphis to Muscle Shoals\Lucinda Williams - Southern Soul~ From Memphis to Muscle Shoals & More - 05. Misty Blue.wav

Peak level 99.9 %
Extraction speed 6.6 X
Track quality 100.0 %
Test CRC C18F87E4
Copy CRC C18F87E4
Copy OK

Track 6

Filename E:\Torrents of Autumn\Williams, Lucinda [2021] Lu's Jukebox Vol. 2~ Southern Soul — From Memphis to Muscle Shoals\Lucinda Williams - Southern Soul~ From Memphis to Muscle Shoals & More - 06. Main Street Mission.wav

Peak level 99.9 %
Extraction speed 6.5 X
Track quality 100.0 %
Test CRC 271D55F3
Copy CRC 271D55F3
Copy OK

Track 7

Filename E:\Torrents of Autumn\Williams, Lucinda [2021] Lu's Jukebox Vol. 2~ Southern Soul — From Memphis to Muscle Shoals\Lucinda Williams - Southern Soul~ From Memphis to Muscle Shoals & More - 07. You Don't Miss Your Water.wav

Peak level 99.8 %
Extraction speed 6.7 X
Track quality 100.0 %
Test CRC 76F845DF
Copy CRC 76F845DF
Copy OK

Track 8

Filename E:\Torrents of Autumn\Williams, Lucinda [2021] Lu's Jukebox Vol. 2~ Southern Soul — From Memphis to Muscle Shoals\Lucinda Williams - Southern Soul~ From Memphis to Muscle Shoals & More - 08. It Tears Me Up.wav

Peak level 99.9 %
Extraction speed 7.0 X
Track quality 100.0 %
Test CRC 0F89ADFB
Copy CRC 0F89ADFB
Copy OK

Track 9

Filename E:\Torrents of Autumn\Williams, Lucinda [2021] Lu's Jukebox Vol. 2~ Southern Soul — From Memphis to Muscle Shoals\Lucinda Williams - Southern Soul~ From Memphis to Muscle Shoals & More - 09. Rainy Night in Georgia.wav

Peak level 99.9 %
Extraction speed 7.5 X
Track quality 100.0 %
Test CRC 41026682
Copy CRC 41026682
Copy OK

Track 10

Filename E:\Torrents of Autumn\Williams, Lucinda [2021] Lu's Jukebox Vol. 2~ Southern Soul — From Memphis to Muscle Shoals\Lucinda Williams - Southern Soul~ From Memphis to Muscle Shoals & More - 10. Take Me to the River.wav

Peak level 98.6 %
Extraction speed 8.1 X
Track quality 100.0 %
Test CRC C679E7B6
Copy CRC C679E7B6
Copy OK

Track 11

Filename E:\Torrents of Autumn\Williams, Lucinda [2021] Lu's Jukebox Vol. 2~ Southern Soul — From Memphis to Muscle Shoals\Lucinda Williams - Southern Soul~ From Memphis to Muscle Shoals & More - 11. Still I Long for Your Kiss.wav

Peak level 99.9 %
Extraction speed 7.3 X
Track quality 99.9 %
Test CRC 2E7BE4C0
Copy CRC 2E7BE4C0
Copy OK

No errors occurred

End of status report

–– CUETools DB Plugin V2.1.6

[CTDB TOCID: aCPNE9Y5iQeQJ79591mPbfUUVeg-] found
Submit result: aCPNE9Y5iQeQJ79591mPbfUUVeg- has been confirmed
Track | CTDB Status
1 | (2/2) Accurately ripped
2 | (2/2) Accurately ripped
3 | (2/2) Accurately ripped
4 | (2/2) Accurately ripped
5 | (2/2) Accurately ripped
6 | (2/2) Accurately ripped
7 | (2/2) Accurately ripped
8 | (2/2) Accurately ripped
9 | (2/2) Accurately ripped
10 | (2/2) Accurately ripped
11 | (2/2) Accurately ripped


==== Log checksum 2D590449FD2CED9B9997E7E42C47371286B7F376862657089F25312358254AF0 ====

See also:

Lucinda Williams - Good Souls Better Angels (2020)

Lucinda Williams - Runnin' ...ribute To Tom Petty (2021)

All thanks go to DoobieBro

>>> My Blog <<<

DOWNLOAD: