Subcategories

Ludwig van Beethoven - Piano Sonatas No. 8, 14, 21, 23, 26 (Daniela Ruso), 15 (Mikulas Skuta) (1996)

Posted By: Ebisu
 Ludwig van Beethoven - Piano Sonatas No. 8, 14, 21, 23, 26 (Daniela Ruso), 15 (Mikulas Skuta) (1996)

Ludwig van Beethoven - Piano Sonatas No. 8, 14, 21, 23, 26 (Daniela Ruso), 15 (Mikulas Skuta) (1996)
Classical | Eac. Flac, Tracks+Cue, Log | Covers | 381.01 MB
Label: Prestige Classics | TT: 58:00 / 67:43

Ludwig van Beethoven (baptized 17 December 1770 – 26 March 1827) was a German composer and pianist. A crucial figure in the transition between the Classical and Romantic eras in Western art music, he remains one of the most famous and influential of all composers. His best known compositions include 9 symphonies, 5 concertos for piano, 32 piano sonatas, and 16 string quartets. He also composed other chamber music, choral works (including the celebrated Missa Solemnis), and songs.

Born in Bonn, then the capital of the Electorate of Cologne and part of the Holy Roman Empire, Beethoven displayed his musical talents at an early age and was taught by his father Johann van Beethoven and Christian Gottlob Neefe. During his first 22 years in Bonn, Beethoven intended to study with Wolfgang Amadeus Mozart and befriended Joseph Haydn. Beethoven moved to Vienna in 1792 and began studying with Haydn, quickly gaining a reputation as a virtuoso pianist. He lived in Vienna until his death. In about 1800 his hearing began to deteriorate, and by the last decade of his life he was almost totally deaf. He gave up conducting and performing in public but continued to compose; many of his most admired works come from this period.

Cast:
Daniela Ruso, piano
Mikulas Skuta, piano

Tracklist:
CD 1

Piano Sonata No. 14 in C-sharp minor, Op. 27 No. 2 "Mondschein"
1. Adagio sostenuto (6:19)
2. Allegretto. Trio (2:16)
3. Presto agitato (7:50)
Piano Sonata No. 23 in F minor, Op. 57 "Appassionata"
4. Allegro assai (9:45)
5. Andante con moto (6:13)
6. Allegro ma non troppo (8:17)
Piano Sonata No. 26 in E-flat major, Op. 81a "Les Adieux"
7. Das Lebewohl. Adagio — Allegro "Les Adieux" (7:31)
8. Die Abwesenheit. Andante espressivo "L'Absence" (3:39)
9. Das Wiedersehn. Vivacissimamente "Le Retour" (6:08)

CD 2

Piano Sonata No. 21 in C major, Op. 53 "Waldstein"
1. Allegro con brio (11:05)
2. Introduzione. Adagio molto / III. Rondo. Allegretto moderato (13:41)
Piano Sonata No. 8 in C minor, Op. 13 "Pathétique"
3. Grave — Allegro di molto e con brio (8:39)
4. Adagio cantabile (5:08)
5. Rondo. Allegro (4:27)
Piano Sonata No. 15 in D major, Op. 28 "Pastoral"
6. Allegro (8:34)
7. Andante (9:18)
8. Scherzo. Allegro vivace (2:13)
9. Rondo. Allegro ma non troppo (4:33)



Exact Audio Copy V1.0 beta 3 from 29. August 2011

Отчёт EAC об извлечении, выполненном 30. марта 2012, 8:13

Ludwig van Beethoven / The Great Piano Sonatas (disc 1)

Дисковод: PIONEER DVD-RW DVR-216D Adapter: 0 ID: 1

Режим чтения : Достоверность
Использование точного потока : Да
Отключение кэша аудио : Да
Использование указателей C2 : Нет

Коррекция смещения при чтении : 96
Способность читать области Lead-in и Lead-out : Нет
Заполнение пропущенных сэмплов тишиной : Да
Удаление блоков с тишиной в начале и конце : Нет
При вычислениях CRC использовались нулевые сэмплы : Да
Интерфейс : Встроенный Win32-интерфейс для Win NT/2000
Обработка зазоров : Добавлено к следующему треку

Выходной формат : Пользовательский кодировщик
Выбранный битрейт : 128 kBit/s
Качество : Высокий
Добавление ID3-тега : Нет
Утилита сжатия : C:\Program Files\Exact Audio Copy\Flac\flac.exe
Дополнительные параметры : -V -8 -T "Genre=%genre%" -T "Artist=%artist%" -T "Title=%title%" -T "Album=%albumtitle%" -T "Date=%year%" -T "Tracknumber=%tracknr%" -T "Comment=%comment%" %source%


TOC извлечённого CD

Трек | Старт | Длительность | Начальный сектор | Конечный сектор
––––––––––––––––––––––––––––––––––-
1 | 0:00.32 | 6:19.23 | 32 | 28479
2 | 6:19.55 | 2:16.02 | 28480 | 38681
3 | 8:35.57 | 7:50.00 | 38682 | 73931
4 | 16:25.57 | 9:45.00 | 73932 | 117806
5 | 26:10.57 | 6:13.00 | 117807 | 145781
6 | 32:23.57 | 8:17.00 | 145782 | 183056
7 | 40:40.57 | 7:31.73 | 183057 | 216954
8 | 48:12.55 | 3:39.37 | 216955 | 233416
9 | 51:52.17 | 6:08.00 | 233417 | 261016


Трек 1

Имя файла D:\Скаченное\Раздачи\Музыка (lossless)\Бетховен\CD 1\01 - Piano Sonata No. 14 in C-sharp minor, Op. 27 No. 2 ''Mondschein''- I. Adagio sostenuto.wav

Длина предзазора 0:00:02.32

Пиковый уровень 10.2 %
Скорость извлечения 3.9 X
Качество трека 99.9 %
CRC теста 9562F641
CRC копии 9562F641
Трек не обнаружен в базе AccurateRip
Копирование… OK

Трек 2

Имя файла D:\Скаченное\Раздачи\Музыка (lossless)\Бетховен\CD 1\02 - Piano Sonata No. 14 in C-sharp minor, Op. 27 No. 2 ''Mondschein''- II. Allegretto. Trio.wav

Пиковый уровень 35.8 %
Скорость извлечения 3.8 X
Качество трека 99.9 %
CRC теста E560BABE
CRC копии E560BABE
Трек не обнаружен в базе AccurateRip
Копирование… OK

Трек 3

Имя файла D:\Скаченное\Раздачи\Музыка (lossless)\Бетховен\CD 1\03 - Piano Sonata No. 14 in C-sharp minor, Op. 27 No. 2 ''Mondschein''- III. Presto agitato.wav

Пиковый уровень 82.7 %
Скорость извлечения 6.1 X
Качество трека 100.0 %
CRC теста 0DFAF443
CRC копии 0DFAF443
Трек не обнаружен в базе AccurateRip
Копирование… OK

Трек 4

Имя файла D:\Скаченное\Раздачи\Музыка (lossless)\Бетховен\CD 1\04 - Piano Sonata No. 23 in F minor, Op. 57 ''Appassionata''- I. Allegro assai.wav

Длина предзазора 0:00:03.62

Пиковый уровень 55.5 %
Скорость извлечения 6.9 X
Качество трека 100.0 %
CRC теста 9D68BC49
CRC копии 9D68BC49
Трек не обнаружен в базе AccurateRip
Копирование… OK

Трек 5

Имя файла D:\Скаченное\Раздачи\Музыка (lossless)\Бетховен\CD 1\05 - Piano Sonata No. 23 in F minor, Op. 57 ''Appassionata''- II. Andante con moto.wav

Пиковый уровень 37.0 %
Скорость извлечения 7.3 X
Качество трека 100.0 %
CRC теста B80F8DC4
CRC копии B80F8DC4
Трек не обнаружен в базе AccurateRip
Копирование… OK

Трек 6

Имя файла D:\Скаченное\Раздачи\Музыка (lossless)\Бетховен\CD 1\06 - Piano Sonata No. 23 in F minor, Op. 57 ''Appassionata''- III. Allegro ma non troppo.wav

Пиковый уровень 51.1 %
Скорость извлечения 7.1 X
Качество трека 100.0 %
CRC теста B0AD0446
CRC копии B0AD0446
Трек не обнаружен в базе AccurateRip
Копирование… OK

Трек 7

Имя файла D:\Скаченное\Раздачи\Музыка (lossless)\Бетховен\CD 1\07 - Piano Sonata No. 26 in E-flat major, Op. 81a ''Les Adieux''- I. Das Lebewohl. Adagio - Allegro ''Les Adieux''.wav

Длина предзазора 0:00:02.70

Пиковый уровень 60.2 %
Скорость извлечения 5.6 X
Качество трека 99.9 %
CRC теста 52ADAFA3
CRC копии 52ADAFA3
Трек не обнаружен в базе AccurateRip
Копирование… OK

Трек 8

Имя файла D:\Скаченное\Раздачи\Музыка (lossless)\Бетховен\CD 1\08 - Piano Sonata No. 26 in E-flat major, Op. 81a ''Les Adieux''- II. Die Abwesenheit. Andante espressivo ''L'Absence''.wav

Длина предзазора 0:00:03.60

Пиковый уровень 17.8 %
Скорость извлечения 7.8 X
Качество трека 100.0 %
CRC теста 1C553720
CRC копии 1C553720
Трек не обнаружен в базе AccurateRip
Копирование… OK

Трек 9

Имя файла D:\Скаченное\Раздачи\Музыка (lossless)\Бетховен\CD 1\09 - Piano Sonata No. 26 in E-flat major, Op. 81a ''Les Adieux''- III. Das Wiedersehn. Vivacissimamente ''Le Retour''.wav

Пиковый уровень 38.9 %
Скорость извлечения 8.1 X
Качество трека 99.9 %
CRC теста 7369C8D4
CRC копии 7369C8D4
Трек не обнаружен в базе AccurateRip
Копирование… OK


Ни одного трека нет в базе AccurateRip

Ошибок не произошло

Конец отчёта

==== Контрольная сумма отчёта 4E0C29B6BF5D3FA4C7CD53DB59E4FD55411F55B48CE089B9F2687028D80B90B7 ====

Exact Audio Copy V1.0 beta 3 from 29. August 2011

Отчёт EAC об извлечении, выполненном 1. апреля 2012, 17:48

Ludwig van Beethoven / The Great Piano Sonatas (disc 2)

Дисковод: PIONEER DVD-RW DVR-216D Adapter: 0 ID: 1

Режим чтения : Достоверность
Использование точного потока : Да
Отключение кэша аудио : Да
Использование указателей C2 : Нет

Коррекция смещения при чтении : 96
Способность читать области Lead-in и Lead-out : Нет
Заполнение пропущенных сэмплов тишиной : Да
Удаление блоков с тишиной в начале и конце : Нет
При вычислениях CRC использовались нулевые сэмплы : Да
Интерфейс : Встроенный Win32-интерфейс для Win NT/2000
Обработка зазоров : Добавлено к предыдущему треку

Выходной формат : Пользовательский кодировщик
Выбранный битрейт : 128 kBit/s
Качество : Высокий
Добавление ID3-тега : Нет
Утилита сжатия : C:\Program Files\Exact Audio Copy\Flac\flac.exe
Дополнительные параметры : -V -8 -T "Genre=%genre%" -T "Artist=%artist%" -T "Title=%title%" -T "Album=%albumtitle%" -T "Date=%year%" -T "Tracknumber=%tracknr%" -T "Comment=%comment%" %source%


TOC извлечённого CD

Трек | Старт | Длительность | Начальный сектор | Конечный сектор
––––––––––––––––––––––––––––––––––-
1 | 0:00.00 | 11:05.25 | 0 | 49899
2 | 11:05.25 | 13:41.72 | 49900 | 111546
3 | 24:47.22 | 8:39.40 | 111547 | 150511
4 | 33:26.62 | 5:08.53 | 150512 | 173664
5 | 38:35.40 | 4:27.57 | 173665 | 193746
6 | 43:03.22 | 8:34.28 | 193747 | 232324
7 | 51:37.50 | 9:18.45 | 232325 | 274219
8 | 60:56.20 | 2:13.45 | 274220 | 284239
9 | 63:09.65 | 4:33.30 | 284240 | 304744


Трек 1

Имя файла D:\Скаченное\Раздачи\Музыка (lossless)\Бетховен\CD 2\01 - Piano Sonata No. 21 in C major, Op. 53 ''Waldstein''- I. Allegro con brio.wav

Длина предзазора 0:00:02.00

Пиковый уровень 86.1 %
Скорость извлечения 4.8 X
Качество трека 99.9 %
CRC теста DF8BD61C
CRC копии DF8BD61C
Трек не обнаружен в базе AccurateRip
Копирование… OK

Трек 2

Имя файла D:\Скаченное\Раздачи\Музыка (lossless)\Бетховен\CD 2\02 - Piano Sonata No. 21 in C major, Op. 53 ''Waldstein''- II. Introduzione. Adagio molto , III. Rondo. Allegretto moderato.wav

Длина предзазора 0:00:02.25

Пиковый уровень 88.1 %
Скорость извлечения 6.1 X
Качество трека 99.9 %
CRC теста 3F466634
CRC копии 03D471A9
Трек не обнаружен в базе AccurateRip
Копирование… OK

Трек 3

Имя файла D:\Скаченное\Раздачи\Музыка (lossless)\Бетховен\CD 2\03 - Piano Sonata No. 8 in C minor, Op. 13 ''Pathétique''- I. Grave – Allegro di molto e con brio.wav

Длина предзазора 0:00:09.12

Пиковый уровень 77.6 %
Скорость извлечения 6.7 X
Качество трека 99.9 %
CRC теста 198D4D4B
CRC копии 198D4D4B
Трек не обнаружен в базе AccurateRip
Копирование… OK

Трек 4

Имя файла D:\Скаченное\Раздачи\Музыка (lossless)\Бетховен\CD 2\04 - Piano Sonata No. 8 in C minor, Op. 13 ''Pathétique''- II. Adagio cantabile.wav

Длина предзазора 0:00:00.10

Пиковый уровень 59.8 %
Скорость извлечения 6.9 X
Качество трека 100.0 %
CRC теста 71F83922
CRC копии 71F83922
Трек не обнаружен в базе AccurateRip
Копирование… OK

Трек 5

Имя файла D:\Скаченное\Раздачи\Музыка (lossless)\Бетховен\CD 2\05 - Piano Sonata No. 8 in C minor, Op. 13 ''Pathétique''- III. Rondo. Allegro.wav

Длина предзазора 0:00:01.40

Пиковый уровень 69.7 %
Скорость извлечения 7.2 X
Качество трека 100.0 %
CRC теста 4C9C103B
CRC копии 4C9C103B
Трек не обнаружен в базе AccurateRip
Копирование… OK

Трек 6

Имя файла D:\Скаченное\Раздачи\Музыка (lossless)\Бетховен\CD 2\06 - Piano Sonata No. 15 in D major, Op. 28 ''Pastoral''- I. Allegro.wav

Длина предзазора 0:00:09.30

Пиковый уровень 100.0 %
Скорость извлечения 7.9 X
Качество трека 100.0 %
CRC теста 94A86D84
CRC копии 94A86D84
Трек не обнаружен в базе AccurateRip
Копирование… OK

Трек 7

Имя файла D:\Скаченное\Раздачи\Музыка (lossless)\Бетховен\CD 2\07 - Piano Sonata No. 15 in D major, Op. 28 ''Pastoral''- II. Andante.wav

Длина предзазора 0:00:00.63

Пиковый уровень 69.0 %
Скорость извлечения 8.3 X
Качество трека 100.0 %
CRC теста 5CF9B8E2
CRC копии 5CF9B8E2
Трек не обнаружен в базе AccurateRip
Копирование… OK

Трек 8

Имя файла D:\Скаченное\Раздачи\Музыка (lossless)\Бетховен\CD 2\08 - Piano Sonata No. 15 in D major, Op. 28 ''Pastoral''- III. Scherzo. Allegro vivace.wav

Длина предзазора 0:00:01.48

Пиковый уровень 84.4 %
Скорость извлечения 0.8 X
Качество трека 100.0 %
CRC теста 694304BE
CRC копии 694304BE
Трек не обнаружен в базе AccurateRip
Копирование… OK

Трек 9

Имя файла D:\Скаченное\Раздачи\Музыка (lossless)\Бетховен\CD 2\09 - Piano Sonata No. 15 in D major, Op. 28 ''Pastoral''- IV. Rondo. Allegro ma non troppo.wav

Длина предзазора 0:00:01.10

Пиковый уровень 91.7 %
Скорость извлечения 1.0 X
Качество трека 100.0 %
CRC теста D7B7F0D4
CRC копии D7B7F0D4
Трек не обнаружен в базе AccurateRip
Копирование… OK


Ни одного трека нет в базе AccurateRip

Ошибок не произошло

Конец отчёта

==== Контрольная сумма отчёта 64AFC8BCF57F8714AFFD60B8BBFE4A0CB840F7A70955BDFBF495E11E16FBC82D ====

“Thanks to the original releaser"