Subcategories

Luis Miguel - Segundo Romance (1994)

Posted By: popsakov
Luis Miguel - Segundo Romance (1994)

Luis Miguel - Segundo Romance (1994)
EAC Rip | WV (Img) + Cue + Log ~ 276 Mb | MP3 CBR320 ~ 95 Mb
Full Scans (PNG, 400 dpi) ~ 93 Mb | RAR 5% Recovery
Latin Pop, Bolero | WEA Latina #97234-2

Mexican superstar Luis Miguel followed up his immensely successful ballads collection, Romance, with the aptly titled Grammy-winner Segundo Romance (meaning second romance). The album, of course, is a first-rate collection of timeless Latin American standards. Miguel, one of Latin America's reigning superstars, has a wonderful, passionate voice, and the songs were exquisitely produced by the artist himself. The album opens with a romantic accordion leading into the first song, "El Dia Que Me Quieras," setting the tone for the rest of the set. Other highlights include his lush version of "La Media Vuelta," one of the album's biggest hits, complete with horns, strings, and Spanish guitars. Another highlight, "Solamente Una Vez," is complimented with a harmonica. All of this simply illustrates the lush production which went into this surefire hit, which further established Miguel as a first-rate balladeer, and further entrenched his immense international popularity, not only with the youth market, but with an older, more sophisticated market as well.
~ Jose F. Promis, All Music

***************

Luis Miguel - Segundo Romance (1994)

Luis Miguel - Segundo Romance (1994)

Track List:

01. El Dia Que Me Quieras [0:03:59.60]
02. Sin Ti [0:03:03.28]
03. Somos Novios [0:03:10.42]
04. La Media Vuelta [0:02:41.03]
05. Solamente Una Vez [0:03:00.15]
06. Todo Y Nada [0:03:39.30]
07. Historia De Un Amor [0:03:52.32]
08. Como Yo Te Ame [0:03:34.38]
09. Nosotros [0:03:52.45]
10. Yo Se Que Volveras [0:03:37.35]
11. Delirio [0:04:33.22]

Exact Audio Copy V1.3 from 2. September 2016

EAC extraction logfile from 25. February 2017, 8:35

Luis Miguel / Segundo Romance

Used drive : HL-DT-STDVDRAM GH24NSC0 Adapter: 1 ID: 0

Read mode : Secure
Utilize accurate stream : Yes
Defeat audio cache : Yes
Make use of C2 pointers : No

Read offset correction : 6
Overread into Lead-In and Lead-Out : No
Fill up missing offset samples with silence : Yes
Delete leading and trailing silent blocks : No
Null samples used in CRC calculations : Yes
Used interface : Native Win32 interface for Win NT & 2000

Used output format : Internal WAV Routines
Sample format : 44.100 Hz; 16 Bit; Stereo


TOC of the extracted CD

Track | Start | Length | Start sector | End sector
––––––––––––––––––––––––––––-
1 | 0:00.32 | 3:59.60 | 32 | 18016
2 | 4:00.17 | 3:03.28 | 18017 | 31769
3 | 7:03.45 | 3:10.42 | 31770 | 46061
4 | 10:14.12 | 2:41.03 | 46062 | 58139
5 | 12:55.15 | 3:00.15 | 58140 | 71654
6 | 15:55.30 | 3:39.30 | 71655 | 88109
7 | 19:34.60 | 3:52.32 | 88110 | 105541
8 | 23:27.17 | 3:34.38 | 105542 | 121629
9 | 27:01.55 | 3:52.45 | 121630 | 139074
10 | 30:54.25 | 3:37.35 | 139075 | 155384
11 | 34:31.60 | 4:33.22 | 155385 | 175881


Range status and errors

Selected range

Filename C:\Music CD\Luis Miguel - Segundo Romance.wav

Peak level 100.0 %
Extraction speed 1.8 X
Range quality 100.0 %
Test CRC 32E3697C
Copy CRC 32E3697C
Copy OK

No errors occurred


AccurateRip summary

Track 1 accurately ripped (confidence 22) [CABCDAB6] (AR v2)
Track 2 accurately ripped (confidence 23) [7036B4D1] (AR v2)
Track 3 accurately ripped (confidence 21) [15BFC4CD] (AR v2)
Track 4 accurately ripped (confidence 23) [4F02897F] (AR v2)
Track 5 accurately ripped (confidence 22) [C193A178] (AR v2)
Track 6 accurately ripped (confidence 22) [03AA7E90] (AR v2)
Track 7 accurately ripped (confidence 22) [2BE5FE42] (AR v2)
Track 8 accurately ripped (confidence 22) [8C715423] (AR v2)
Track 9 accurately ripped (confidence 21) [0785B4BE] (AR v2)
Track 10 accurately ripped (confidence 23) [6D7AFEEB] (AR v2)
Track 11 accurately ripped (confidence 22) [C537D4E5] (AR v2)

All tracks accurately ripped

End of status report

–– CUETools DB Plugin V2.1.6

[CTDB TOCID: bpkcbSbAP_LwT4jDNdyyN6WTucw-] found
Submit result: bpkcbSbAP_LwT4jDNdyyN6WTucw- has been confirmed
Track | CTDB Status
1 | (23/25) Accurately ripped
2 | (25/25) Accurately ripped
3 | (25/25) Accurately ripped
4 | (25/25) Accurately ripped
5 | (24/25) Accurately ripped
6 | (25/25) Accurately ripped
7 | (24/25) Accurately ripped
8 | (25/25) Accurately ripped
9 | (24/25) Accurately ripped
10 | (25/25) Accurately ripped
11 | (25/25) Accurately ripped


==== Log checksum 3148F71C856751AC4344FD5F4D82E86B443812E5438FAD7D3A2A6942C232FDB7 ====

foobar2000 1.3.16 / Dynamic Range Meter 1.1.1
log date: 2017-10-25 10:09:05

––––––––––––––––––––––––––––––––––––––––
Analyzed: Luis Miguel / Segundo Romance
––––––––––––––––––––––––––––––––––––––––

DR Peak RMS Duration Track
––––––––––––––––––––––––––––––––––––––––
DR9 -0.22 dB -11.24 dB 4:00 01-El Dia Que Me Quieras
DR8 -0.15 dB -10.69 dB 3:03 02-Sin Ti
DR10 -0.19 dB -12.50 dB 3:11 03-Somos Novios
DR11 -0.34 dB -13.03 dB 2:41 04-La Media Vuelta
DR10 -0.16 dB -12.65 dB 3:00 05-Solamente Una Vez
DR9 -0.02 dB -10.94 dB 3:39 06-Todo Y Nada
DR10 0.00 dB -11.95 dB 3:52 07-Historia De Un Amor
DR9 0.00 dB -11.57 dB 3:35 08-Como Yo Te Ame
DR9 0.00 dB -11.41 dB 3:53 09-Nosotros
DR9 -0.21 dB -11.68 dB 3:37 10-Yo Se Que Volveras
DR10 0.00 dB -11.59 dB 4:33 11-Delirio
––––––––––––––––––––––––––––––––––––––––

Number of tracks: 11
Official DR value: DR9

Samplerate: 44100 Hz
Channels: 2
Bits per sample: 16
Bitrate: 933 kbps
Codec: WavPack
================================================================================

[CUETools log; Date: 25.10.2017 10:09:11; Version: 2.1.5]
Pregap length 00:00:32.
[CTDB TOCID: bpkcbSbAP_LwT4jDNdyyN6WTucw-] found.
Track | CTDB Status
1 | (32/34) Accurately ripped
2 | (34/34) Accurately ripped
3 | (34/34) Accurately ripped
4 | (34/34) Accurately ripped
5 | (33/34) Accurately ripped
6 | (34/34) Accurately ripped
7 | (33/34) Accurately ripped
8 | (34/34) Accurately ripped
9 | (33/34) Accurately ripped
10 | (34/34) Accurately ripped
11 | (34/34) Accurately ripped
[AccurateRip ID: 000f6e64-00865127-9509290b] found.
Track [ CRC | V2 ] Status
01 [f1cd59f5|cabcdab6] (21+23/47) Accurately ripped
02 [d68d4e13|7036b4d1] (21+24/48) Accurately ripped
03 [cb215880|15bfc4cd] (21+22/46) Accurately ripped
04 [180d2e03|4f02897f] (21+24/48) Accurately ripped
05 [da0e39f7|c193a178] (21+23/47) Accurately ripped
06 [b2a0f88f|03aa7e90] (21+23/47) Accurately ripped
07 [4d27fd2a|2be5fe42] (21+23/47) Accurately ripped
08 [eb171260|8c715423] (21+22/46) Accurately ripped
09 [d913fe3b|0785b4be] (21+21/45) Accurately ripped
10 [ffd0480d|6d7afeeb] (21+23/47) Accurately ripped
11 [5707cf8e|c537d4e5] (21+22/46) Accurately ripped
Offsetted by -415:
01 [0e5c8824] (03/47) Accurately ripped
02 [da0888ac] (03/48) Accurately ripped
03 [fe4bd991] (03/46) Accurately ripped
04 [07cd61a0] (03/48) Accurately ripped
05 [29386f72] (03/47) Accurately ripped
06 [f56a933e] (03/47) Accurately ripped
07 [be3098ed] (03/47) Accurately ripped
08 [215803f3] (03/46) Accurately ripped
09 [ed7a798b] (03/45) Accurately ripped
10 [09eb8469] (03/47) Accurately ripped
11 [4baf535d] (03/46) Accurately ripped

Track Peak [ CRC32 ] [W/O NULL] [ LOG ]
– 100,0 [32E3697C] [26669C83] CRC32
01 97,4 [8B423790] [1D0572FB]
02 98,2 [EBA4BAEB] [2F1CEA7F]
03 97,8 [9BA07439] [B6ECDBD9]
04 96,2 [6411AA25] [E97BEBE6]
05 98,2 [7D6AE08A] [5FA98131]
06 99,7 [C9D3BA47] [52DA56AA]
07 100,0 [7EC1896A] [4C97EB5B]
08 100,0 [A0B4E110] [B1909D4D]
09 100,0 [DDEC4225] [5281AD6F]
10 97,6 [E65EEE7B] [908B58DC]
11 100,0 [22A871D7] [B7845436]

Luis Miguel - Segundo Romance (1994)

All thanks go to edenika

>>> My Blog <<<

Download from icerbox.com: