Lunatic Soul - 3 Studio Albums (2008-2011)

Posted By: gribovar
Lunatic Soul - 3 Studio Albums (2008-2011)

Lunatic Soul - 3 Studio Albums (2008-2011)
EAC Rip | FLAC (image/tracks+.cue+log) - 893 MB | MP3 CBR 320 kbps (LAME 3.93) - 344 MB | Covers - 77 MB
Genre: Progressive Rock | RAR 3% Rec. | Label: Mystic Production, Kscope

Lunatic Soul is the solo project of Mariusz Duda, the lead singer and creative force behind the Polish band, Riverside. While far removed from Riverside's Progressive Metal it is not difficult to see comparisons and similarities to the parent band in the music contained on the eponymous debut album - not least of all because of Duda's distinctive clean vocals, the occasional guttural growl and, despite the lack of electric guitars, the pounding acoustic guitar riffs that appear on some of the tracks. However, this is not the lighter, unplugged side of Duda, it is a dark brooding mix of eclectic sounds with ethnic instruments and influences evoking eastern/oriental themes, psychedlic-era Pink Floyd-like rhythms, swirling and ethereal keyboards reminiscent of early Porcupine Tree tied together by songs that are surprisingly accessible and melodic.

Lunatic Soul - 3 Studio Albums (2008-2011)

Lunatic Soul - Lunatic Soul (2008)
EAC Rip | FLAC (image+.cue+log) - 302 MB | MP3 CBR 320 kbps (LAME 3.93) - 110 MB | Covers - 7 MB
Genre: Progressive Rock | RAR 3% Rec. | Label: Mystic Production (MYSTCD 064)

Tracklist:
01. Prebirth
02. The New Beginning
03. Out On A Limb
04. Summerland
05. Lunatic Soul
06. Where The Darkness Is Deepest
07. Near Life Experience
08. Adrift
09. The Final Truth
10. Waiting For The Dawn

Total time: 46:53

Exact Audio Copy V1.0 beta 3 from 29. August 2011

Отчёт EAC об извлечении, выполненном 10. декабря 2016, 15:32

Lunatic Soul / Lunatic Soul

Дисковод: ASUS DRW-24B3ST Adapter: 3 ID: 0

Режим чтения : Достоверность
Использование точного потока : Да
Отключение кэша аудио : Да
Использование указателей C2 : Нет

Коррекция смещения при чтении : 6
Способность читать области Lead-in и Lead-out : Нет
Заполнение пропущенных сэмплов тишиной : Да
Удаление блоков с тишиной в начале и конце : Нет
При вычислениях CRC использовались нулевые сэмплы : Да
Интерфейс : Встроенный Win32-интерфейс для Win NT/2000

Выходной формат : Пользовательский кодировщик
Выбранный битрейт : 128 kBit/s
Качество : Высокий
Добавление ID3-тега : Нет
Утилита сжатия : C:\Program Files (x86)\Exact Audio Copy\Flac\flac.exe
Дополнительные параметры : -V -8 -T "Date=%year%" -T "Genre=%genre%" %source%


TOC извлечённого CD

Трек | Старт | Длительность | Начальный сектор | Конечный сектор
––––––––––––––––––––––––––––––––––-
1 | 0:00.00 | 1:10.50 | 0 | 5299
2 | 1:10.50 | 4:49.39 | 5300 | 27013
3 | 6:00.14 | 5:27.35 | 27014 | 51573
4 | 11:27.49 | 4:59.29 | 51574 | 74027
5 | 16:27.03 | 6:47.22 | 74028 | 104574
6 | 23:14.25 | 3:57.22 | 104575 | 122371
7 | 27:11.47 | 5:26.44 | 122372 | 146865
8 | 32:38.16 | 3:05.10 | 146866 | 160750
9 | 35:43.26 | 7:34.06 | 160751 | 194806
10 | 43:17.32 | 3:35.50 | 194807 | 210981


Характеристики диапазона извлечения и сообщения об ошибках

Выбранный диапазон

Имя файла E:\РАЗДАЧИ\NNMClub-eloychik ®\Lunatic Soul - Collection[NNMClub.to]\2008 - Lunatic Soul\Lunatic Soul - Lunatic Soul.wav

Пиковый уровень 98.8 %
Скорость извлечения 5.5 X
Качество диапазона 100.0 %
CRC теста F24C16E6
CRC копии F24C16E6
Копирование… OK

Ошибок не произошло


AccurateRip: сводка

Трек 1 : извлечено точно (доверие 7) [678330C9] (AR v2)
Трек 2 : извлечено точно (доверие 7) [C5A937C5] (AR v2)
Трек 3 : извлечено точно (доверие 7) [03A2D601] (AR v2)
Трек 4 : извлечено точно (доверие 7) [F546F884] (AR v2)
Трек 5 : извлечено точно (доверие 7) [5AA75EBB] (AR v2)
Трек 6 : извлечено точно (доверие 7) [547464B6] (AR v2)
Трек 7 : извлечено точно (доверие 7) [6929A21B] (AR v2)
Трек 8 : извлечено точно (доверие 7) [D6B183A2] (AR v2)
Трек 9 : извлечено точно (доверие 7) [D24BC414] (AR v2)
Трек 10 : извлечено точно (доверие 7) [16F5092D] (AR v2)

Все треки извлечены точно

Конец отчёта

==== Контрольная сумма отчёта 331E52ADA94D3BA1E72CAA99CE43724CAA145FF2EC735CA239798372CB39D0F5 ====

[CUETools log; Date: 15.03.2017 1:03:53; Version: 2.1.4]
[CTDB TOCID: ZcoJtWNode2_vkrHdHxxQ3BbtSo-] found.
Track | CTDB Status
1 | (109/109) Accurately ripped
2 | (109/109) Accurately ripped
3 | (108/109) Accurately ripped
4 | (109/109) Accurately ripped
5 | (109/109) Accurately ripped
6 | (109/109) Accurately ripped
7 | (109/109) Accurately ripped
8 | (109/109) Accurately ripped
9 | (108/109) Accurately ripped
10 | (107/109) Accurately ripped
[AccurateRip ID: 0010c21d-0089fb04-9c0afd0a] found.
Track [ CRC | V2 ] Status
01 [1e50a9d2|678330c9] (016+009/117) Accurately ripped
02 [77bb9c73|c5a937c5] (016+009/116) Accurately ripped
03 [c6fdf911|03a2d601] (016+009/117) Accurately ripped
04 [bb4e0927|f546f884] (016+009/117) Accurately ripped
05 [ec052057|5aa75ebb] (016+009/118) Accurately ripped
06 [4f2e2f5d|547464b6] (017+009/117) Accurately ripped
07 [76d0c4d0|6929a21b] (016+009/117) Accurately ripped
08 [06fcbe15|d6b183a2] (016+009/117) Accurately ripped
09 [7b895760|d24bc414] (016+009/117) Accurately ripped
10 [f1f2ba95|16f5092d] (016+009/114) Accurately ripped
Offsetted by 44:
01 [b9bef011] (038/117) Accurately ripped
02 [ecbda854] (037/116) Accurately ripped
03 [89053809] (038/117) Accurately ripped
04 [709a8fea] (038/117) Accurately ripped
05 [bcf18148] (038/118) Accurately ripped
06 [b448aab1] (037/117) Accurately ripped
07 [b563a31f] (038/117) Accurately ripped
08 [38a7b166] (038/117) Accurately ripped
09 [3846293c] (038/117) Accurately ripped
10 [659121e5] (037/114) Accurately ripped
Offsetted by 68:
01 [b044bcf4] (003/117) Accurately ripped
02 [434ad601] (003/116) Accurately ripped
03 [6737b779] (003/117) Accurately ripped
04 [05997bf1] (003/117) Accurately ripped
05 [9d1178d1] (003/118) Accurately ripped
06 [5fcb7999] (003/117) Accurately ripped
07 [8ba7c149] (003/117) Accurately ripped
08 [d1b9a444] (003/117) Accurately ripped
09 [b67e9bb4] (003/117) Accurately ripped
10 [d22bf885] (003/114) Accurately ripped
Offsetted by -46:
01 [3579b7f7] (000/117) No match (V2 was not tested)
02 [40462a0e] (000/116) No match (V2 was not tested)
03 [07c7da25] (000/117) No match (V2 was not tested)
04 [eb25fbd9] (000/117) No match (V2 was not tested)
05 [59fad45f] (000/118) No match (V2 was not tested)
06 [711e22cb] (000/117) No match (V2 was not tested)
07 [875e78fa] (000/117) No match (V2 was not tested)
08 [d597ddb3] (000/117) No match (V2 was not tested)
09 [1ef27bfa] (000/117) No match (V2 was not tested)
10 [515954b7] (000/114) No match (V2 was not tested)
Offsetted by 38:
01 [c42549e8] (000/117) No match (V2 was not tested)
02 [3e31f2fd] (000/116) No match (V2 was not tested)
03 [9178982d] (000/117) No match (V2 was not tested)
04 [66179aeb] (000/117) No match (V2 was not tested)
05 [1a58e839] (000/118) No match (V2 was not tested)
06 [4967f6f7] (000/117) No match (V2 was not tested)
07 [aa51164f] (000/117) No match (V2 was not tested)
08 [92a9b23e] (000/117) No match (V2 was not tested)
09 [58b80c9e] (000/117) No match (V2 was not tested)
10 [6917bfed] (000/114) No match (V2 was not tested)

Track Peak [ CRC32 ] [W/O NULL] [ LOG ]
– 98,8 [F24C16E6] [48A7C714] CRC32
01 98,8 [F45B8D7F] [A76A46FB]
02 98,8 [3256E5C4] [F26A1E09]
03 98,8 [767287D5] [83B5ECF3]
04 98,8 [BCBAA930] [8A597402]
05 98,8 [BBB2465D] [74B2966D]
06 97,9 [3BD42DEA] [F98B0EE6]
07 98,8 [E961216E] [202FAC0E]
08 98,8 [09FD75AE] [F724E438]
09 98,8 [45D0BAA8] [F475A693]
10 98,8 [F739105D] [AE8DBE29]

Lunatic Soul - 3 Studio Albums (2008-2011)

Lunatic Soul - Lunatic Soul II (2010)
EAC Rip | FLAC (tracks+.cue+log) - 319 MB | MP3 CBR 320 kbps (LAME 3.93) - 119 MB | Covers - 55 MB
Genre: Progressive Rock | RAR 3% Rec. | Label: Mystic Production (MYSTCD 139)

Tracklist:
01. The In-Between Kingdom
02. Otherwhere
03. Suspended In Whiteness
04. Asoulum
05. Limbo
06. Escape from ParadIce
07. Transition
08. Gravestone Hill
09. Wanderings

Total time: 50:43

Exact Audio Copy V0.99 prebeta 5 from 4. May 2009

EAC extraction logfile from 23. October 2010, 20:27

Lunatic Soul / Lunatic Soul II

Used drive : PIONEER DVD-RW DVR-116D Adapter: 0 ID: 1

Read mode : Secure
Utilize accurate stream : Yes
Defeat audio cache : Yes
Make use of C2 pointers : No

Read offset correction : 96
Overread into Lead-In and Lead-Out : No
Fill up missing offset samples with silence : Yes
Delete leading and trailing silent blocks : No
Null samples used in CRC calculations : No
Used interface : Native Win32 interface for Win NT & 2000
Gap handling : Appended to previous track

Used output format : User Defined Encoder
Selected bitrate : 768 kBit/s
Quality : High
Add ID3 tag : No
Command line compressor : C:\Program Files\Exact Audio Copy\FLAC\FLAC.EXE
Additional command line options : -6 -V -T "ARTIST=%a" -T "TITLE=%t" -T "ALBUM=%g" -T "DATE=%y" -T "TRACKNUMBER=%n" -T "GENRE=%m" -T "COMMENT=%e" %s -o %d


TOC of the extracted CD

Track | Start | Length | Start sector | End sector
––––––––––––––––––––––––––––-
1 | 0:00.00 | 6:48.14 | 0 | 30613
2 | 6:48.14 | 2:48.24 | 30614 | 43237
3 | 9:36.38 | 7:56.01 | 43238 | 78938
4 | 17:32.39 | 6:23.21 | 78939 | 107684
5 | 23:55.60 | 1:52.48 | 107685 | 116132
6 | 25:48.33 | 4:38.49 | 116133 | 137031
7 | 30:27.07 | 11:07.37 | 137032 | 187093
8 | 41:34.44 | 3:41.16 | 187094 | 203684
9 | 45:15.60 | 5:28.07 | 203685 | 228291


Track 1

Filename C:\Documents and Settings\Kitty\Music\Flac\Lunatic Soul II\Lunatic Soul\Lunatic Soul II\01 - The In-between Kingdom.wav

Pre-gap length 0:00:02.00

Peak level 98.8 %
Track quality 100.0 %
Test CRC AE20737D
Copy CRC AE20737D
Track not present in AccurateRip database
Copy OK

Track 2

Filename C:\Documents and Settings\Kitty\Music\Flac\Lunatic Soul II\Lunatic Soul\Lunatic Soul II\02 - Otherwhere.wav

Peak level 98.8 %
Track quality 99.9 %
Test CRC F98D5235
Copy CRC F98D5235
Track not present in AccurateRip database
Copy OK

Track 3

Filename C:\Documents and Settings\Kitty\Music\Flac\Lunatic Soul II\Lunatic Soul\Lunatic Soul II\03 - Suspended In Whiteness.wav

Peak level 98.8 %
Track quality 100.0 %
Test CRC 7F287DEB
Copy CRC 7F287DEB
Track not present in AccurateRip database
Copy OK

Track 4

Filename C:\Documents and Settings\Kitty\Music\Flac\Lunatic Soul II\Lunatic Soul\Lunatic Soul II\04 - Asoulum.wav

Peak level 98.8 %
Track quality 100.0 %
Test CRC AF2E1C24
Copy CRC AF2E1C24
Track not present in AccurateRip database
Copy OK

Track 5

Filename C:\Documents and Settings\Kitty\Music\Flac\Lunatic Soul II\Lunatic Soul\Lunatic Soul II\05 - Limbo.wav

Peak level 98.8 %
Track quality 100.0 %
Test CRC 13CDE57B
Copy CRC 13CDE57B
Track not present in AccurateRip database
Copy OK

Track 6

Filename C:\Documents and Settings\Kitty\Music\Flac\Lunatic Soul II\Lunatic Soul\Lunatic Soul II\06 - Escape From Paradice.wav

Peak level 98.8 %
Track quality 100.0 %
Test CRC 58262972
Copy CRC 58262972
Track not present in AccurateRip database
Copy OK

Track 7

Filename C:\Documents and Settings\Kitty\Music\Flac\Lunatic Soul II\Lunatic Soul\Lunatic Soul II\07 - Transition.wav

Peak level 98.8 %
Track quality 100.0 %
Test CRC 4075C006
Copy CRC 4075C006
Track not present in AccurateRip database
Copy OK

Track 8

Filename C:\Documents and Settings\Kitty\Music\Flac\Lunatic Soul II\Lunatic Soul\Lunatic Soul II\08 - Gravestone Hill.wav

Peak level 98.8 %
Track quality 100.0 %
Test CRC 1839CFED
Copy CRC 1839CFED
Track not present in AccurateRip database
Copy OK

Track 9

Filename C:\Documents and Settings\Kitty\Music\Flac\Lunatic Soul II\Lunatic Soul\Lunatic Soul II\09 - Wanderings.wav

Peak level 98.8 %
Track quality 99.9 %
Test CRC 24A83C41
Copy CRC 24A83C41
Track not present in AccurateRip database
Copy OK


None of the tracks are present in the AccurateRip database

No errors occurred

End of status report

[CUETools log; Date: 15.03.2017 1:28:29; Version: 2.1.4]
[CTDB TOCID: kVlyfYQWtSH8MuLVPEuIzbAZUrw-] found.
Track | CTDB Status
1 | (88/89) Accurately ripped
2 | (88/89) Accurately ripped
3 | (88/89) Accurately ripped
4 | (87/89) Accurately ripped
5 | (88/89) Accurately ripped
6 | (88/89) Accurately ripped
7 | (88/89) Accurately ripped
8 | (86/89) Accurately ripped
9 | (88/89) Accurately ripped
[AccurateRip ID: 001148a8-007edc7f-790be309] found.
Track [ CRC | V2 ] Status
01 [8797615e|3b5c4c61] (34+56/95) Accurately ripped
02 [62ee82c6|ce3cd371] (35+56/96) Accurately ripped
03 [2e1bd36a|c97fe76d] (35+56/96) Accurately ripped
04 [00f1c2ef|716bfafe] (34+56/95) Accurately ripped
05 [dbe84a0f|cc558e3a] (34+56/95) Accurately ripped
06 [3da85eb7|a2a26b6b] (33+56/94) Accurately ripped
07 [4cbf2f4f|f3b95372] (33+56/94) Accurately ripped
08 [3f2d2e4b|c820fc8a] (35+56/96) Accurately ripped
09 [8bfb5ddf|4d29d465] (33+54/92) Accurately ripped
Offsetted by -660:
01 [369a8ee8] (03/95) Accurately ripped
02 [3776150c] (03/96) Accurately ripped
03 [adf945f2] (03/96) Accurately ripped
04 [7c9e13c2] (03/95) Accurately ripped
05 [5ee3287a] (03/95) Accurately ripped
06 [9df24756] (03/94) Accurately ripped
07 [50f10dc6] (03/94) Accurately ripped
08 [7ad70bcd] (03/96) Accurately ripped
09 [886dc2be] (03/92) Accurately ripped

Track Peak [ CRC32 ] [W/O NULL] [ LOG ]
– 98,8 [8F2D3AA5] [1789B103]
01 98,8 [9C5D1E0D] [AE20737D] W/O NULL
02 98,8 [A616D196] [F98D5235] W/O NULL
03 98,8 [7513C461] [7F287DEB] W/O NULL
04 98,8 [1F39CA24] [AF2E1C24] W/O NULL
05 98,8 [4B2D0C1F] [13CDE57B] W/O NULL
06 98,8 [0E5B4AD3] [58262972] W/O NULL
07 98,8 [57A41C50] [4075C006] W/O NULL
08 98,8 [C3F78EB8] [1839CFED] W/O NULL
09 98,8 [F3CB71FC] [24A83C41] W/O NULL

Lunatic Soul - 3 Studio Albums (2008-2011)

Lunatic Soul - Impressions (2011)
EAC Rip | FLAC (image+.cue+log) - 272 MB | MP3 CBR 320 kbps (LAME 3.93) - 115 MB | Covers - 15 MB
Genre: Progressive Rock | RAR 3% Rec. | Label: Kscope (KSCOPE 188)

Tracklist:
01. Impression I
02. Impression II
03. Impression III
04. Impression IV
05. Impression V
06. Impression VI
07. Impression VII
08. Impression VIII
09. Gravestone Hill (remix)
10. Summerland (remix)

Total time: 49:02

Exact Audio Copy V1.0 beta 3 from 29. August 2011

EAC extraction logfile from 31. October 2011, 17:55

Lunatic Soul / Impressions

Used drive : TEAC CD-W516EB Adapter: 0 ID: 0

Read mode : Secure
Utilize accurate stream : Yes
Defeat audio cache : Yes
Make use of C2 pointers : No

Read offset correction : 685
Overread into Lead-In and Lead-Out : No
Fill up missing offset samples with silence : Yes
Delete leading and trailing silent blocks : No
Null samples used in CRC calculations : Yes
Used interface : Native Win32 interface for Win NT & 2000

Used output format : User Defined Encoder
Selected bitrate : 1024 kBit/s
Quality : High
Add ID3 tag : Yes
Command line compressor : C:\Program Files (x86)\FLAC\flac.exe
Additional command line options : -6 -V -T "ARTIST=%artist%" -T "TITLE=%title%" -T "ALBUM=%albumtitle%" -T "DATE=%year%" -T "TRACKNUMBER=%tracknr%" -T "GENRE=%genre%" -T "COMMENT=%comment%" %source% -o %dest%


TOC of the extracted CD

Track | Start | Length | Start sector | End sector
––––––––––––––––––––––––––––-
1 | 0:00.00 | 5:28.40 | 0 | 24639
2 | 5:28.40 | 4:04.26 | 24640 | 42965
3 | 9:32.66 | 7:02.39 | 42966 | 74654
4 | 16:35.30 | 3:56.71 | 74655 | 92425
5 | 20:32.26 | 5:01.56 | 92426 | 115056
6 | 25:34.07 | 7:33.17 | 115057 | 149048
7 | 33:07.24 | 3:13.12 | 149049 | 163535
8 | 36:20.36 | 4:23.64 | 163536 | 183324
9 | 40:44.25 | 3:51.23 | 183325 | 200672
10 | 44:35.48 | 4:26.11 | 200673 | 220633


Range status and errors

Selected range

Filename Y:\EAC\wurensh\Lunatic Soul\Lunatic Soul - Impressions.wav

Peak level 99.2 %
Extraction speed 7.4 X
Range quality 100.0 %
Test CRC A8C701FA
Copy CRC A8C701FA
Copy OK

No errors occurred


AccurateRip summary

Track 1 not present in database
Track 2 not present in database
Track 3 not present in database
Track 4 not present in database
Track 5 not present in database
Track 6 not present in database
Track 7 not present in database
Track 8 not present in database
Track 9 not present in database
Track 10 not present in database

None of the tracks are present in the AccurateRip database

End of status report

–– CUETools DB Plugin V2.1.3

[CTDB TOCID: JLNPUdNAKiF3DNgSpx5WjIMfuW4-] disk not present in database, Submit result: JLNPUdNAKiF3DNgSpx5WjIMfuW4- has been uploaded


==== Log checksum D8429B6886ED1516692B5D7EF8F70764BF30700826825B80E04DCFA3A6B4F70D ====

[CUETools log; Date: 15.03.2017 21:04:17; Version: 2.1.4]
[CTDB TOCID: JLNPUdNAKiF3DNgSpx5WjIMfuW4-] found.
Track | CTDB Status
1 | (63/63) Accurately ripped
2 | (63/63) Accurately ripped
3 | (63/63) Accurately ripped
4 | (62/63) Accurately ripped
5 | (62/63) Accurately ripped
6 | (63/63) Accurately ripped
7 | (63/63) Accurately ripped
8 | (63/63) Accurately ripped
9 | (63/63) Accurately ripped
10 | (63/63) Accurately ripped
[AccurateRip ID: 00135511-00999293-980b7d0a] found.
Track [ CRC | V2 ] Status
01 [ea39ac87|4daa4d45] (10+34/53) Accurately ripped
02 [58a7a664|7cf995a6] (10+34/53) Accurately ripped
03 [956f1cfe|2ac6c6c2] (10+34/53) Accurately ripped
04 [b5a40a5f|28331db4] (09+34/52) Accurately ripped
05 [18379114|2e8868ef] (10+34/53) Accurately ripped
06 [0161c017|2e1b1d21] (10+34/53) Accurately ripped
07 [fa5401ea|7f8cbf49] (10+34/53) Accurately ripped
08 [394630bd|acc51050] (10+34/53) Accurately ripped
09 [0a39c425|a5e3373f] (09+34/52) Accurately ripped
10 [3aed9c2e|2d566189] (10+35/54) Accurately ripped
Offsetted by -676:
01 [8f07b9f4] (02/53) Accurately ripped
02 [a3fe72f2] (02/53) Accurately ripped
03 [eb86b8ad] (02/53) Accurately ripped
04 [e75b8c23] (02/52) Accurately ripped
05 [95004c49] (02/53) Accurately ripped
06 [502d0424] (02/53) Accurately ripped
07 [d402272c] (02/53) Accurately ripped
08 [fe637d90] (02/53) Accurately ripped
09 [f0e311c3] (02/52) Accurately ripped
10 [f5119c3b] (02/54) Accurately ripped
Offsetted by -30:
01 [023573e7] (00/53) No match (V2 was not tested)
02 [454b7ffb] (00/53) No match (V2 was not tested)
03 [db1a5900] (00/53) No match (V2 was not tested)
04 [ee0310fd] (00/52) No match (V2 was not tested)
05 [36301c54] (00/53) No match (V2 was not tested)
06 [d0dd74c4] (00/53) No match (V2 was not tested)
07 [9f129558] (00/53) No match (V2 was not tested)
08 [7d6f51eb] (00/53) No match (V2 was not tested)
09 [e4933045] (00/52) No match (V2 was not tested)
10 [77ad2d64] (00/54) No match (V2 was not tested)

Track Peak [ CRC32 ] [W/O NULL] [ LOG ]
– 99,2 [A8C701FA] [60ED84F5] CRC32
01 99,2 [C6413D01] [57871C6A]
02 99,2 [76F3743A] [1ED86CF7]
03 99,2 [6EF50657] [C691AFD3]
04 99,2 [4CBC2685] [6D6ABFFC]
05 99,2 [F5BAC263] [46DB3338]
06 99,2 [D78C59E4] [C0595A51]
07 99,2 [4443FAA0] [23307FDE]
08 99,2 [5A9CBC9D] [A7D58F22]
09 99,2 [DFEEC1FB] [27E8E661]
10 99,2 [83B443D2] [62D28B6C]

Thanks to eloychik, snekkerpalle, wurensh