Subcategories
Tags
Language
Tags

Lunatic Soul - Walking on a Flashlight Beam (2014) (Repost)

Posted By: gribovar
Lunatic Soul - Walking on a Flashlight Beam (2014) (Repost)

Lunatic Soul - Walking on a Flashlight Beam (2014)
EAC Rip | FLAC (image+.cue+log) - 370 MB | MP3 CBR 320 kbps (LAME 3.93) - 150 MB | Covers - 46 MB
Genre: Progressive Rock | RAR 3% Rec. | Label: Mystic Production (MYSTCD 272)

This is the fourth album from Poland's Lunatic Soul, the project of Riverside singer and bassist Mariusz Duda. As with the previous three albums we get the drummer from Indukti Wawrzyniec Dramowicz who happens to be the only other musician on this release.
The music is very atmospheric with some exotic sounds. The singing is often use as a chant or a incantation that brings the melody to a high level of emotion. It's easy to drift away with this music, like some kind of trance. The quality is the same as Riverside, the voice and the song structures have strong similarities, despite the light side of the sound and the slow tempo. There is some more disturbing atmosphere mixed with some serene passages. Some will have trouble enjoying some of the keyboards and samples effects display here, but as long as the compositions have quality, that what's matter. Welcome to the solitude journey and imaginary world of Mariusz Duda.

Tracklist:
01. Shutting Out The Sun
02. Cold
03. Gutter
04. Stars Sellotaped
05. The Fear Within
06. Treehouse
07. Pygmalion's Ladder
08. Sky Drawn in Crayon
09. Walking on a Flashlight Beam

Total time: 01:03:45

Exact Audio Copy V1.0 beta 2 from 29. April 2011

EAC extraction logfile from 9. October 2014, 17:46

Lunatic Soul / Walking on a Flashlight Beam

Used drive : ASUS DRW-24B3ST Adapter: 0 ID: 0

Read mode : Secure
Utilize accurate stream : Yes
Defeat audio cache : Yes
Make use of C2 pointers : No

Read offset correction : 6
Overread into Lead-In and Lead-Out : No
Fill up missing offset samples with silence : Yes
Delete leading and trailing silent blocks : No
Null samples used in CRC calculations : Yes
Used interface : Native Win32 interface for Win NT & 2000

Used output format : User Defined Encoder
Selected bitrate : 1024 kBit/s
Quality : High
Add ID3 tag : No
Command line compressor : C:\Program Files (x86)\Exact Audio Copy\Flac\flac.exe
Additional command line options : -8 -V -T "ARTIST=%artist%" -T "TITLE=%title%" -T "ALBUM=%albumtitle%" -T "DATE=%year%" -T "TRACKNUMBER=%tracknr%" -T "TOTALTRACKS=%numtracks%" -T "GENRE=%genre%" -T "ALBUMARTIST=%albumartist%" -T "ALBUM ARTIST=%albumartist%


TOC of the extracted CD

Track | Start | Length | Start sector | End sector
––––––––––––––––––––––––––––-
1 | 0:00.00 | 8:38.74 | 0 | 38923
2 | 8:38.74 | 6:57.46 | 38924 | 70244
3 | 15:36.45 | 8:41.43 | 70245 | 109362
4 | 24:18.13 | 1:34.21 | 109363 | 116433
5 | 25:52.34 | 7:10.00 | 116434 | 148683
6 | 33:02.34 | 5:31.24 | 148684 | 173532
7 | 38:33.58 | 12:01.41 | 173533 | 227648
8 | 50:35.24 | 4:58.31 | 227649 | 250029
9 | 55:33.55 | 8:10.69 | 250030 | 286848


Range status and errors

Selected range

Filename D:\Yurek Private\Uploads\LUNATIC SOUL (2014) - Walking on a Flashlight Beam\Lunatic Soul - Walking on a Flashlight Beam.wav

Peak level 91.1 %
Extraction speed 5.8 X
Range quality 99.9 %
Test CRC 06478D51
Copy CRC 06478D51
Copy OK

No errors occurred


AccurateRip summary

Track 1 not present in database
Track 2 not present in database
Track 3 not present in database
Track 4 not present in database
Track 5 not present in database
Track 6 not present in database
Track 7 not present in database
Track 8 not present in database
Track 9 not present in database

None of the tracks are present in the AccurateRip database

End of status report

==== Log checksum F491E87B1AE6C021FF579CC43DF713AA5E9AAF7BA85DD746489F5239BA86FE80 ====

[CUETools log; Date: 03.04.2020 2:44:18; Version: 2.1.4]
[CTDB TOCID: 38FULQWYLvhw.aS9ZBQUgH5Yol8-] found.
Track | CTDB Status
1 | (247/247) Accurately ripped
2 | (247/247) Accurately ripped
3 | (247/247) Accurately ripped
4 | (247/247) Accurately ripped
5 | (247/247) Accurately ripped
6 | (247/247) Accurately ripped
7 | (246/247) Accurately ripped
8 | (247/247) Accurately ripped
9 | (244/247) Accurately ripped
[AccurateRip ID: 0015b18f-009e0131-730ef009] found.
Track [ CRC | V2 ] Status
01 [031338cc|ff516d8f] (04+30/87) Accurately ripped
02 [4de7457d|d06beba7] (04+30/87) Accurately ripped
03 [afbc1648|d80248be] (04+30/87) Accurately ripped
04 [1af39794|c109844a] (04+30/87) Accurately ripped
05 [654ba135|76ca53b3] (04+30/87) Accurately ripped
06 [1836826f|e9408e6c] (04+30/87) Accurately ripped
07 [92fcbb9c|93eaefdc] (04+30/87) Accurately ripped
08 [1d5f97ef|77a455c2] (04+30/87) Accurately ripped
09 [40be3e4f|2e476f2a] (04+30/87) Accurately ripped
Offsetted by -12:
01 [74e300f7] (05/87) Accurately ripped
02 [e7cfab4a] (05/87) Accurately ripped
03 [a01da4df] (05/87) Accurately ripped
04 [75f42914] (05/87) Accurately ripped
05 [8439b4ad] (05/87) Accurately ripped
06 [4ba41f49] (05/87) Accurately ripped
07 [b8225a63] (05/87) Accurately ripped
08 [9d6c2149] (05/87) Accurately ripped
09 [3e6fd5e1] (05/87) Accurately ripped
Offsetted by -18:
01 [46f0db8c] (00/87) No match (V2 was not tested)
02 [1db4e26f] (00/87) No match (V2 was not tested)
03 [65fb0fd0] (00/87) No match (V2 was not tested)
04 [6dfecca7] (00/87) No match (V2 was not tested)
05 [be63314f] (00/87) No match (V2 was not tested)
06 [dd24435d] (00/87) No match (V2 was not tested)
07 [faee2a35] (00/87) No match (V2 was not tested)
08 [49f973e0] (00/87) No match (V2 was not tested)
09 [3d6fa47e] (00/87) No match (V2 was not tested)
Offsetted by -6:
01 [3a421b21] (00/87) No match (V2 was not tested)
02 [39d1707e] (00/87) No match (V2 was not tested)
03 [f6de31b3] (00/87) No match (V2 was not tested)
04 [14602e75] (00/87) No match (V2 was not tested)
05 [fcd734b0] (00/87) No match (V2 was not tested)
06 [2722df33] (00/87) No match (V2 was not tested)
07 [d55ae342] (00/87) No match (V2 was not tested)
08 [8d8925b0] (00/87) No match (V2 was not tested)
09 [3f5608ed] (00/87) No match (V2 was not tested)

Track Peak [ CRC32 ] [W/O NULL] [ LOG ]
– 91,1 [06478D51] [D790F3D3] CRC32
01 91,1 [A824F3DC] [EDDCD09E]
02 91,1 [7ECA1D69] [FB6BA86D]
03 91,1 [1B0C9D7F] [62FB6FFC]
04 87,0 [345999B0] [BE5F9362]
05 91,1 [B980BD8D] [9C55D33E]
06 91,1 [C4947BEF] [EE4625B7]
07 91,1 [82FECA97] [5DC3ED3B]
08 91,1 [4AAD9078] [1DDE14BC]
09 91,1 [86D44F0A] [4C24FB72]

Thanks to ayurek

See also:
Lunatic Soul - 3 Studio Albums (2008-2011)
Riverside - Anno Domini High Definition (2009)
Riverside - Shrine of New Gene...s (2013) [2CD Limited Edition]
Riverside - Wasteland (2018) [2CD Special Edition 2019]