Luther Allison - Love Me Papa (1977)

Posted By: Designol
Luther Allison - Love Me Papa (1977)

Luther Allison - Love Me Papa (1977)
EAC | FLAC | Image (Cue&Log) ~ 328 Mb (incl 5%) | Mp3 (CBR320) ~ 161 Mb (incl 5%) | Scans included
Genre: Chicago Blues, Modern Electric Blues | Label: Black & Blue | # 233.524 | Time: 00:58:33

Allison was a major star in blues America when he was cut down by lung cancer and brain tumors in August 1997. But for a long time before celebrity caught up with him, the exciting guitarist was far better-known in Europe than in this United States. This French session dates from 1977, when the 38-year-old Chicago bluesman first earned standing ovations from European crowds and began contemplating his eventual move to Paris. Unlike his high-energy recordings in the '90s, Allison is in a relaxed mood throughout the program here, modulating his pointed expressions of heartbreak on blues standards (Little Walter's "Last Night" and Big Bill Broonzy's "Key to the Highway," to name two) and on originals (the title track and "It's Too Late"). Three tracks, all good, are added for CD reissue. On this memorable session, pianist-organist Sid Wingfield and a rhythm section capably back up the main man.

Review by Frank-John Hadley

Luther Allison is the blues' proverbial little boy with the curl; when he's good, he's great. When he's bad, he's awful. Allison was on throughout most of the nine tracks (three bonus cuts) on this 1977 date recently reissued by Evidence on CD, playing with the ferocity, direction, and inventiveness that is often missing from his more uneven efforts. His covers of Little Walter Jacobs' "Last Night" and "Blues With A Feeling" are not reverential or respectful but are launching pads for high-octane, barreling riffs, snappy phrases, and exciting solos. His vocals are not always that keen, but Allison at least stretches them out and adds verbal embellishments, yells, and shouts of encouragement.

Review by Ron Wynn, Allmusic.com

Luther Allison - Love Me Papa (1977)



Tracklist:

01. Love Me Papa (06:00)
02. Blues With A Feeling (06:24)
03. Last Night (11:41)
04. Key To The Highway (05:14)
05. It's Too Late (11:14)
06. Feelin' So Good (05:36)
07. Going Down (05:58)
08. Luther's Boogie (03:08)
09. Standing At The Crossroads (03:15)


Exact Audio Copy V1.1 from 23. June 2015

Отчёт EAC об извлечении, выполненном 12. июля 2016, 20:52

Luther Allison / Love Me Papa

Дисковод: SONY CD-RW CRX230ED Adapter: 1 ID: 0

Режим чтения : Достоверность
Использование точного потока : Да
Отключение кэша аудио : Да
Использование указателей C2 : Нет

Коррекция смещения при чтении : 6
Способность читать области Lead-in и Lead-out : Нет
Заполнение пропущенных сэмплов тишиной : Да
Удаление блоков с тишиной в начале и конце : Нет
При вычислениях CRC использовались нулевые сэмплы : Да
Интерфейс : Встроенный Win32-интерфейс для Win NT/2000

Выходной формат : Внутренние WAV-операции
Формат сэмплов : 44.100 Гц; 16 бит; стерео


TOC извлечённого CD

Трек | Старт | Длительность | Начальный сектор | Конечный сектор
––––––––––––––––––––––––––––––––––-
1 | 0:00.00 | 6:00.10 | 0 | 27009
2 | 6:00.10 | 6:24.42 | 27010 | 55851
3 | 12:24.52 | 11:41.15 | 55852 | 108441
4 | 24:05.67 | 5:14.70 | 108442 | 132061
5 | 29:20.62 | 11:14.00 | 132062 | 182611
6 | 40:34.62 | 5:36.05 | 182612 | 207816
7 | 46:10.67 | 5:58.48 | 207817 | 234714
8 | 52:09.40 | 3:08.35 | 234715 | 248849
9 | 55:18.00 | 3:15.12 | 248850 | 263486


Характеристики диапазона извлечения и сообщения об ошибках

Выбранный диапазон

Имя файла F:\MusicCD\Torrent\Luther Allison - Love Me Papa\Luther Allison - Love Me Papa.wav

Пиковый уровень 94.0 %
Скорость извлечения 7.7 X
Качество диапазона 100.0 %
CRC теста 6AFA84F9
CRC копии 6AFA84F9
Копирование… OK

Ошибок не произошло


AccurateRip: сводка

Трек 1 : извлечено точно (доверие 2) [4D8C2EB7] (AR v2)
Трек 2 : извлечено точно (доверие 2) [0938287F] (AR v2)
Трек 3 : извлечено точно (доверие 2) [4C545B1B] (AR v2)
Трек 4 : извлечено точно (доверие 2) [8FAA9D0D] (AR v2)
Трек 5 : извлечено точно (доверие 2) [BA3DD71A] (AR v2)
Трек 6 : извлечено точно (доверие 2) [868A4749] (AR v2)
Трек 7 : извлечено точно (доверие 2) [C3AE3C85] (AR v2)
Трек 8 : извлечено точно (доверие 2) [179A4E1D] (AR v2)
Трек 9 : извлечено точно (доверие 2) [77202D1A] (AR v2)

Все треки извлечены точно

Конец отчёта

–– CUETools DB Plugin V2.1.6

[CTDB TOCID: FCeqyWy5EftLR58d_qXEh8LHs9Y-] found
Submit result: FCeqyWy5EftLR58d_qXEh8LHs9Y- has been confirmed
Track | CTDB Status
1 | (5/5) Accurately ripped
2 | (5/5) Accurately ripped
3 | (4/5) Accurately ripped, or (1/5) differs in 11 samples @07:31:30,08:09:06,08:51:29,10:19:34
4 | (5/5) Accurately ripped
5 | (4/5) Accurately ripped, or (1/5) differs in 2 samples @00:36:50,00:38:20
6 | (5/5) Accurately ripped
7 | (5/5) Accurately ripped
8 | (5/5) Accurately ripped
9 | (5/5) Accurately ripped


==== Контрольная сумма отчёта E5F50032AD83394382F4132C830C324EA055B7826CDC4DA401238DC973E73E2D ====

foobar2000 1.2 / Dynamic Range Meter 1.1.1
log date: 2016-07-15 22:05:48

––––––––––––––––––––––––––––––––––––––––
Analyzed: Luther Allison / Love Me Papa
––––––––––––––––––––––––––––––––––––––––

DR Peak RMS Duration Track
––––––––––––––––––––––––––––––––––––––––
DR13 -1.06 dB -17.71 dB 6:00 01-Love Me Papa
DR13 -1.70 dB -18.55 dB 6:25 02-Blues With A Feeling
DR13 -3.36 dB -20.26 dB 11:41 03-Last Night
DR13 -0.53 dB -16.35 dB 5:15 04-Key To The Highway
DR14 -1.68 dB -19.51 dB 11:14 05-It's Too Late
DR13 -1.13 dB -18.74 dB 5:36 06-Feelin' So Good
DR11 -2.04 dB -15.89 dB 5:59 07-Going Down
DR12 -0.70 dB -15.16 dB 3:08 08-Luther's Boogie
DR13 -1.66 dB -16.50 dB 3:15 09-Standing At The Crossroads
––––––––––––––––––––––––––––––––––––––––

Number of tracks: 9
Official DR value: DR13

Samplerate: 44100 Hz
Channels: 2
Bits per sample: 16
Bitrate: 701 kbps
Codec: FLAC
================================================================================

Luther Allison - Love Me Papa (1977)

Luther Allison - Love Me Papa (1977)