Luther Allison - Soul Fixin' Man (1994)

Posted By: Designol
Luther Allison - Soul Fixin' Man (1994)

Luther Allison - Soul Fixin' Man (1994)
EAC | FLAC | Image (Cue&Log) ~ 369 Mb (incl 5%) | Mp3 (CBR320) ~ 165 Mb (incl 5%) | Scans included
Chicago Blues, Modern Electric Blues | Label: Alligator | # ALCD 4820 | Time: 00:53:57

Soul Fixin' Man was blues guitarist/vocalist Luther Allison's first American recording in nearly 20 years. However, his domestic inactivity was not because Allison had stopped playing music. Far from it, since he was based in Paris and worked constantly on the European continent. A powerful player whose intensity on this set sometimes borders on rock (although remaining quite grounded in blues), Luther Allison (who contributed eight of the dozen songs) displays the large amount of musical growth he had experienced since the mid-'70s. Joined by his quintet, the Memphis Horns, and (on "Freedom") a choir, Allison is heard throughout in top form.

Review by Scott Yanow, Allmusic.com

Luther Allison - Soul Fixin' Man (1994)



Tracklist:

01. Bad Love (06:24)
02. I Want To Know (04:53)
03. Soul Fixin' Man (03:07)
04. Middle of the Road (04:55)
05. She Was Born That Way (04:38)
06. Gave It All (03:56)
07. You Been Teasin' Me (03:01)
08. Nobody But You (04:31)
09. Put Your Money Where Your Mouth Is (06:29)
10. The Things I Used To Do (03:19)
11. Love String (03:53)
12. Freedom (04:46)


Exact Audio Copy V1.0 beta 4 from 7. December 2014

Отчёт EAC об извлечении, выполненном 28. февраля 2015, 10:49

Luther Allison / Soul Fixin' Man

Дисковод: SONY CD-RW CRX230ED Adapter: 1 ID: 0

Режим чтения : Достоверность
Использование точного потока : Да
Отключение кэша аудио : Да
Использование указателей C2 : Нет

Коррекция смещения при чтении : 6
Способность читать области Lead-in и Lead-out : Нет
Заполнение пропущенных сэмплов тишиной : Да
Удаление блоков с тишиной в начале и конце : Нет
При вычислениях CRC использовались нулевые сэмплы : Да
Интерфейс : Встроенный Win32-интерфейс для Win NT/2000

Выходной формат : Внутренние WAV-операции
Формат сэмплов : 44.100 Гц; 16 бит; стерео


TOC извлечённого CD

Трек | Старт | Длительность | Начальный сектор | Конечный сектор
––––––––––––––––––––––––––––––––––-
1 | 0:00.32 | 6:24.00 | 32 | 28831
2 | 6:24.32 | 4:53.38 | 28832 | 50844
3 | 11:17.70 | 3:07.62 | 50845 | 64931
4 | 14:25.57 | 4:55.65 | 64932 | 87121
5 | 19:21.47 | 4:38.18 | 87122 | 107989
6 | 23:59.65 | 3:56.25 | 107990 | 125714
7 | 27:56.15 | 3:01.52 | 125715 | 139341
8 | 30:57.67 | 4:31.45 | 139342 | 159711
9 | 35:29.37 | 6:29.03 | 159712 | 188889
10 | 41:58.40 | 3:19.35 | 188890 | 203849
11 | 45:18.00 | 3:53.60 | 203850 | 221384
12 | 49:11.60 | 4:46.12 | 221385 | 242846


Характеристики диапазона извлечения и сообщения об ошибках

Выбранный диапазон

Имя файла F:\MusicCD\Torrent\Luther Allison\Luther Allison - Soul Fixin' Man\Luther Allison - Soul Fixin' Man.wav

Пиковый уровень 100.0 %
Скорость извлечения 7.5 X
Качество диапазона 100.0 %
CRC теста 03EE2FE1
CRC копии 03EE2FE1
Копирование… OK

Ошибок не произошло


AccurateRip: сводка

Трек 1 : извлечено точно (доверие 5) [C1BF8846] (AR v2)
Трек 2 : извлечено точно (доверие 5) [F88D8F6F] (AR v2)
Трек 3 : извлечено точно (доверие 5) [F1715D9B] (AR v2)
Трек 4 : извлечено точно (доверие 5) [5015F7EB] (AR v2)
Трек 5 : извлечено точно (доверие 5) [FCABEC42] (AR v2)
Трек 6 : извлечено точно (доверие 5) [EF59220B] (AR v2)
Трек 7 : извлечено точно (доверие 5) [FC2BFE2F] (AR v2)
Трек 8 : извлечено точно (доверие 5) [2EADCD38] (AR v2)
Трек 9 : извлечено точно (доверие 5) [B2B0EB38] (AR v2)
Трек 10 : извлечено точно (доверие 5) [C41707F6] (AR v2)
Трек 11 : извлечено точно (доверие 5) [FF512228] (AR v2)
Трек 12 : извлечено точно (доверие 5) [05078AC4] (AR v2)

Все треки извлечены точно

Конец отчёта

–– CUETools DB Plugin V2.1.4

[CTDB TOCID: Jsdl1QsgwTnCXmigwEh.Hwhaa0E-] found
Submit result: Jsdl1QsgwTnCXmigwEh.Hwhaa0E- has been confirmed
Track | CTDB Status
1 | (2/3) Accurately ripped, or (1/3) differs in 973 samples @00:03:07-00:03:08,00:03:20-00:03:25,00:03:54-00:03:56
2 | (3/3) Accurately ripped
3 | (3/3) Accurately ripped
4 | (3/3) Accurately ripped
5 | (3/3) Accurately ripped
6 | (3/3) Accurately ripped
7 | (3/3) Accurately ripped
8 | (3/3) Accurately ripped
9 | (3/3) Accurately ripped
10 | (3/3) Accurately ripped
11 | (3/3) Accurately ripped
12 | (3/3) Accurately ripped


==== Контрольная сумма отчёта C180A0D7DD7D5E35FDA06BF9BE0CAB06D01FB05670DF175EED565EFCF37E6E82 ====

foobar2000 1.2 / Dynamic Range Meter 1.1.1
log date: 2016-07-17 21:10:42

––––––––––––––––––––––––––––––––––––––––
Analyzed: Luther Allison / Soul Fixin' Man
––––––––––––––––––––––––––––––––––––––––

DR Peak RMS Duration Track
––––––––––––––––––––––––––––––––––––––––
DR15 0.00 dB -16.75 dB 6:24 01-Bad Love
DR15 -0.14 dB -17.29 dB 4:54 02-I Want To Know
DR16 -0.29 dB -17.54 dB 3:08 03-Soul Fixin' Man
DR17 0.00 dB -18.61 dB 4:56 04-Middle of the Road
DR15 -0.79 dB -17.57 dB 4:38 05-She Was Born That Way
DR16 -0.01 dB -18.33 dB 3:56 06-Gave It All
DR15 -1.02 dB -17.43 dB 3:02 07-You Been Teasin' Me
DR14 -0.40 dB -16.13 dB 4:32 08-Nobody But You
DR13 -2.17 dB -16.94 dB 6:29 09-Put Your Money Where Your Mouth Is
DR12 -7.45 dB -23.78 dB 3:19 10-The Things I Used To Do
DR17 0.00 dB -18.23 dB 3:54 11-Love String
DR17 0.00 dB -20.18 dB 4:46 12-Freedom
––––––––––––––––––––––––––––––––––––––––

Number of tracks: 12
Official DR value: DR15

Samplerate: 44100 Hz
Channels: 2
Bits per sample: 16
Bitrate: 800 kbps
Codec: FLAC
================================================================================

Luther Allison - Soul Fixin' Man (1994)

Luther Allison - Soul Fixin' Man (1994)