Subcategories

Sergei Mikhailovich Lyapunov - Russian Piano Music Series (Goldstone)

Posted By: tapaz9
Sergei Mikhailovich Lyapunov - Russian Piano Music Series (Goldstone)

Sergei Mikhailovich Lyapunov - Russian Piano Music Series (Goldstone)
Classical | EAC: FLAC+Cue+Log | 1 Cd, Covers + Booklet | 271 Mb
Label: Divine Art - Date: 2010

Our series continues with one of the lesser known figures of 20th century Russian music - and some wonderful music which is brilliantly constructed. This is high Romantic music at its very best; a sumptuous Sonata, and several more pieces which can be considered equal to the established repertoire and is truly among the most virtuosic and rich music ever written.
Tracks:

01. Piano Sonata in F minor, Op. 27 - I. Allegro appassionato - Un poco meno mosso - Piu animato - [0:08:16.59]
02. II. Andante sostenuto e molto espressivo - [0:07:30.09]
03. III. Allegro vivo - Tempo I - Meno mosso - Piu anomato - Andante maestoso - L'istesso tempo [0:09:13.26]
04. Barcarolle in G sharp minor, Op. 46 [0:08:20.69]
05. Variations on a Georgian Theme, Op. 60 - Variation 1: Andantino - Poco piu mosso - Allegretto - Poco vivo agitato - Lento capriccioso - Poco piu mosso [0:04:28.41]
06. Variation 2: Allegretto scherzando - Moderato assai - Allegro vivace - Poco piu mosso - Poco animato - Meno mosso [0:05:17.39]
07. Variation 3: Presto - Poco meno mosso - Presto - Prestissimo [0:02:39.58]
08. Fetes de Noel (Svyatki), Op. 41 - No. 1. Nuit de Noel [0:05:02.39]
09. No. 2. Cortege des mages [0:04:57.48]
10. No. 3. Chanteurs de Noel [0:01:59.00]
11. No. 4. Chant de Noel [0:03:18.63]
12. Nocturne in D flat major, Op. 8 [0:07:02.30]
13. Mazurka No. 8 in G minor, Op. 36 [0:04:33.13]


Exact Audio Copy V1.0 beta 3 from 29. August 2011

EAC extraction logfile from 8. February 2013, 9:34

Sergei Mikhailovich Lyapunov / Russian Piano Music Series (Goldstone)

Used drive : TSSTcorpCDDVDW SH-S223C Adapter: 2 ID: 1

Read mode : Secure
Utilize accurate stream : Yes
Defeat audio cache : Yes
Make use of C2 pointers : No

Read offset correction : 697
Overread into Lead-In and Lead-Out : No
Fill up missing offset samples with silence : Yes
Delete leading and trailing silent blocks : No
Null samples used in CRC calculations : Yes
Used interface : Native Win32 interface for Win NT & 2000

Used output format : User Defined Encoder
Selected bitrate : 896 kBit/s
Quality : High
Add ID3 tag : No
Command line compressor : C:\Program Files (x86)\Exact Audio Copy\FLAC\FLAC.EXE
Additional command line options : -V -0 -T "COMMENT=Ripped by Tapaz9" -T "artist=%artist%" -T "title=%title%" -T "album=%albumtitle%" -T "date=%year%" -T "tracknumber=%tracknr%" -T "genre=%genre%" %source%


TOC of the extracted CD

Track | Start | Length | Start sector | End sector
––––––––––––––––––––––––––––-
1 | 0:00.00 | 8:16.59 | 0 | 37258
2 | 8:16.59 | 7:30.09 | 37259 | 71017
3 | 15:46.68 | 9:13.26 | 71018 | 112518
4 | 25:00.19 | 8:20.69 | 112519 | 150087
5 | 33:21.13 | 4:28.41 | 150088 | 170228
6 | 37:49.54 | 5:17.39 | 170229 | 194042
7 | 43:07.18 | 2:39.58 | 194043 | 206025
8 | 45:47.01 | 5:02.39 | 206026 | 228714
9 | 50:49.40 | 4:57.48 | 228715 | 251037
10 | 55:47.13 | 1:59.00 | 251038 | 259962
11 | 57:46.13 | 3:18.63 | 259963 | 274875
12 | 61:05.01 | 7:02.30 | 274876 | 306555
13 | 68:07.31 | 4:33.13 | 306556 | 327043


Range status and errors

Selected range

Filename F:\Musique\Russian Piano Music Series\RussianPianoMusicSeries_Lyapunov\Sergei Mikhailovich Lyapunov - Russian Piano Music Series (Goldstone).wav

Peak level 100.0 %
Extraction speed 14.4 X
Range quality 100.0 %
Copy CRC 43EC0766
Copy OK

No errors occurred

End of status report

==== Log checksum BFCD3D6294EE18D9A52C4E04AB131A591AD88C630A8138C8D220F7E7BD344676 ====

No Mirrors and Torrent-uploads Please

See my classical digital download posts in the Vinyl & HR section or check out My Avax blog