Subcategories

Thelonious Monk - The Complete Prestige Recordings (3CD box) (2000) **[RE-UP]**

Posted By: TestTickles
Thelonious Monk - The Complete Prestige Recordings (3CD box) (2000) **[RE-UP]**

Thelonious Monk - The Complete Prestige Recordings (3CD box) (2000)
EAC Rip | FLAC with CUE and log | scans | 679 mb
MP3 CBR 320kbps | RAR | 401 mb
Genre: jazz

The Complete Prestige Recordings is a 3CD box set by Thelonious Monk featuring songs he did with Sonny Rollins, Miles Davis, Coleman Hawkins, and solo material. This was released in 2000.

Disc 1
1. Coleman Hawkins - Flyin' Hawk
2. Coleman Hawkins - Recollections
3. Coleman Hawkins - Drifting On A Reed
4. Coleman Hawkins - On The Bean
5. Thelonious Monk - Bye-Ya
6. Thelonious Monk - Monk's Dream
7. Thelonious Monk - Sweet And Lovely
8. Thelonious Monk - Little Rootie Tootie
9. Thelonious Monk - Bemsha Swing
10. Thelonious Monk - Reflections
11. Thelonious Monk - These Foolish Things
12. Thelonious Monk - Trinkle, Tinkle
13. Thelonious Monk - Think Of One (Take 1)
14. Thelonious Monk - Let's Call This
15. Thelonious Monk - Think Of One (Take 2)
16. Thelonious Monk/Sonny Rollins - Friday The 13th

Disc 2
1. Thelonious Monk - We See
2. Thelonious Monk - Locomotive
3. Thelonious Monk - Smoke Gets In Your Eyes
4. Thelonious Monk - Hackensack
5. Thelonious Monk - Nutty
6. Thelonious Monk - Just A Gigolo
7. Thelonious Monk - Work
8. Thelonious Monk - Blue Monk
9. Thelonious Monk/Sonny Rollins - I Want To Be Happy
10. Thelonious Monk/Sonny Rollins - The Way You Look Tonight
11. Sonny Rollins - More Than You Know

Disc 3
1. Miles Davis & The Modern Jazz Giants - Bags' Groove (Take 1)
2. Miles Davis & The Modern Jazz Giants - Bemsha Swing
3. Miles Davis & The Modern Jazz Giants - The Man I Love (Take 1)
4. Miles Davis & The Modern Jazz Giants - Swing Spring
5. Miles Davis & The Modern Jazz Giants - Bags' Groove (Take 2)
6. Miles Davis & The Modern Jazz Giants - The Man I Love (Take 2)


EAC extraction logfile from 14. November 2005, 10:11 for CD
Various / The Complete Prestige Recordings (Disc 1)

Used drive : LITE-ON DVDRW SOHW-1633S Adapter: 0 ID: 0
Read mode : Secure with NO C2, accurate stream, disable cache
Read offset correction : 12
Overread into Lead-In and Lead-Out : No

Used output format : Internal WAV Routines
44.100 Hz; 16 Bit; Stereo

Other options :
Fill up missing offset samples with silence : Yes
Delete leading and trailing silent blocks : No
Installed external ASPI interface


Track 1
Filename C:\FLAC\Thelonious Monk - The Complete Prestige Recordings (2000) [FLAC]\Disc 1\01 - Coleman Hawkins - Flyin' Hawk.wav

Pre-gap length 0:00:02.00

Peak level 98.0 %
Track quality 100.0 %
Test CRC 31EDC0F5
Copy CRC 31EDC0F5
Copy OK

Track 2
Filename C:\FLAC\Thelonious Monk - The Complete Prestige Recordings (2000) [FLAC]\Disc 1\02 - Coleman Hawkins - Recollections.wav

Pre-gap length 0:00:02.35

Peak level 98.0 %
Track quality 100.0 %
Test CRC 78F16060
Copy CRC 78F16060
Copy OK

Track 3
Filename C:\FLAC\Thelonious Monk - The Complete Prestige Recordings (2000) [FLAC]\Disc 1\03 - Coleman Hawkins - Drifting On A Reed.wav

Pre-gap length 0:00:02.35

Peak level 98.0 %
Track quality 100.0 %
Test CRC 5B987219
Copy CRC 5B987219
Copy OK

Track 4
Filename C:\FLAC\Thelonious Monk - The Complete Prestige Recordings (2000) [FLAC]\Disc 1\04 - Coleman Hawkins - On The Bean.wav

Pre-gap length 0:00:02.35

Peak level 98.0 %
Track quality 100.0 %
Test CRC 449A1B2E
Copy CRC 449A1B2E
Copy OK

Track 5
Filename C:\FLAC\Thelonious Monk - The Complete Prestige Recordings (2000) [FLAC]\Disc 1\05 - Thelonious Monk - Bye-Ya.wav

Pre-gap length 0:00:02.35

Peak level 97.1 %
Track quality 100.0 %
Test CRC 7CE57760
Copy CRC 7CE57760
Copy OK

Track 6
Filename C:\FLAC\Thelonious Monk - The Complete Prestige Recordings (2000) [FLAC]\Disc 1\06 - Thelonious Monk - Monk's Dream.wav

Pre-gap length 0:00:02.35

Peak level 97.2 %
Track quality 100.0 %
Test CRC 50C39197
Copy CRC 50C39197
Copy OK

Track 7
Filename C:\FLAC\Thelonious Monk - The Complete Prestige Recordings (2000) [FLAC]\Disc 1\07 - Thelonious Monk - Sweet And Lovely.wav

Pre-gap length 0:00:02.33

Peak level 96.6 %
Track quality 100.0 %
Test CRC E736DF8D
Copy CRC E736DF8D
Copy OK

Track 8
Filename C:\FLAC\Thelonious Monk - The Complete Prestige Recordings (2000) [FLAC]\Disc 1\08 - Thelonious Monk - Little Rootie Tootie.wav

Pre-gap length 0:00:02.35

Peak level 97.1 %
Track quality 100.0 %
Test CRC C400BA56
Copy CRC C400BA56
Copy OK

Track 9
Filename C:\FLAC\Thelonious Monk - The Complete Prestige Recordings (2000) [FLAC]\Disc 1\09 - Thelonious Monk - Bemsha Swing.wav

Pre-gap length 0:00:02.35

Peak level 97.1 %
Track quality 100.0 %
Test CRC D4F12F1C
Copy CRC D4F12F1C
Copy OK

Track 10
Filename C:\FLAC\Thelonious Monk - The Complete Prestige Recordings (2000) [FLAC]\Disc 1\10 - Thelonious Monk - Reflections.wav

Pre-gap length 0:00:02.35

Peak level 95.5 %
Track quality 100.0 %
Test CRC 5DB7D516
Copy CRC 5DB7D516
Copy OK

Track 11
Filename C:\FLAC\Thelonious Monk - The Complete Prestige Recordings (2000) [FLAC]\Disc 1\11 - Thelonious Monk - These Foolish Things.wav

Pre-gap length 0:00:02.35

Peak level 97.2 %
Track quality 100.0 %
Test CRC 62BE1DB6
Copy CRC 62BE1DB6
Copy OK

Track 12
Filename C:\FLAC\Thelonious Monk - The Complete Prestige Recordings (2000) [FLAC]\Disc 1\12 - Thelonious Monk - Trinkle, Tinkly.wav

Pre-gap length 0:00:02.27

Peak level 97.2 %
Track quality 100.0 %
Test CRC E0BFFC7A
Copy CRC E0BFFC7A
Copy OK

Track 13
Filename C:\FLAC\Thelonious Monk - The Complete Prestige Recordings (2000) [FLAC]\Disc 1\13 - Thelonious Monk - Think Of One (Take 1).wav

Pre-gap length 0:00:02.35

Peak level 96.9 %
Track quality 99.9 %
Test CRC 85DC5572
Copy CRC 85DC5572
Copy OK

Track 14
Filename C:\FLAC\Thelonious Monk - The Complete Prestige Recordings (2000) [FLAC]\Disc 1\14 - Thelonious Monk - Let's Call This.wav

Pre-gap length 0:00:02.35

Peak level 96.9 %
Track quality 100.0 %
Test CRC 4447B230
Copy CRC 4447B230
Copy OK

Track 15
Filename C:\FLAC\Thelonious Monk - The Complete Prestige Recordings (2000) [FLAC]\Disc 1\15 - Thelonious Monk - Think Of One (Take 2).wav

Pre-gap length 0:00:02.34

Peak level 96.9 %
Track quality 100.0 %
Test CRC 4C6B45C7
Copy CRC 4C6B45C7
Copy OK

Track 16
Filename C:\FLAC\Thelonious Monk - The Complete Prestige Recordings (2000) [FLAC]\Disc 1\16 - Thelonious Monk, Sonny Rollins - Friday The 13th.wav

Pre-gap length 0:00:02.35

Peak level 97.5 %
Track quality 100.0 %
Test CRC 9F351810
Copy CRC 9F351810
Copy OK

No errors occured


End of status report



EAC extraction logfile from 14. November 2005, 11:27 for CD
Various / The Complete Prestige Recordings (Disc 2)

Used drive : LITE-ON DVDRW SOHW-1633S Adapter: 0 ID: 0
Read mode : Secure with NO C2, accurate stream, disable cache
Read offset correction : 12
Overread into Lead-In and Lead-Out : No

Used output format : Internal WAV Routines
44.100 Hz; 16 Bit; Stereo

Other options :
Fill up missing offset samples with silence : Yes
Delete leading and trailing silent blocks : No
Installed external ASPI interface


Track 1
Filename C:\FLAC\Thelonious Monk - The Complete Prestige Recordings (2000) [FLAC]\Disc 2\01 - Thelonious Monk - We See.wav

Pre-gap length 0:00:02.00

Peak level 97.5 %
Track quality 100.0 %
Test CRC 750E39A1
Copy CRC 750E39A1
Copy OK

Track 2
Filename C:\FLAC\Thelonious Monk - The Complete Prestige Recordings (2000) [FLAC]\Disc 2\02 - Thelonious Monk - Locomotive.wav

Pre-gap length 0:00:02.35

Peak level 98.0 %
Track quality 100.0 %
Test CRC F2AD4AB7
Copy CRC F2AD4AB7
Copy OK

Track 3
Filename C:\FLAC\Thelonious Monk - The Complete Prestige Recordings (2000) [FLAC]\Disc 2\03 - Thelonious Monk - Smoke Gets In Your Eyes.wav

Pre-gap length 0:00:02.35

Peak level 97.8 %
Track quality 100.0 %
Test CRC F65707F8
Copy CRC F65707F8
Copy OK

Track 4
Filename C:\FLAC\Thelonious Monk - The Complete Prestige Recordings (2000) [FLAC]\Disc 2\04 - Thelonious Monk - Hackensack.wav

Pre-gap length 0:00:02.34

Peak level 98.0 %
Track quality 100.0 %
Test CRC 8D7F574A
Copy CRC 8D7F574A
Copy OK

Track 5
Filename C:\FLAC\Thelonious Monk - The Complete Prestige Recordings (2000) [FLAC]\Disc 2\05 - Thelonious Monk - Nutty.wav

Pre-gap length 0:00:02.35

Peak level 97.9 %
Track quality 100.0 %
Test CRC 3538B07A
Copy CRC 3538B07A
Copy OK

Track 6
Filename C:\FLAC\Thelonious Monk - The Complete Prestige Recordings (2000) [FLAC]\Disc 2\06 - Thelonious Monk - Just A Gigolo.wav

Pre-gap length 0:00:02.35

Peak level 97.7 %
Track quality 100.0 %
Test CRC A1367CBC
Copy CRC A1367CBC
Copy OK

Track 7
Filename C:\FLAC\Thelonious Monk - The Complete Prestige Recordings (2000) [FLAC]\Disc 2\07 - Thelonious Monk - Work.wav

Pre-gap length 0:00:02.35

Peak level 96.5 %
Track quality 99.9 %
Test CRC 1492D2B8
Copy CRC 1492D2B8
Copy OK

Track 8
Filename C:\FLAC\Thelonious Monk - The Complete Prestige Recordings (2000) [FLAC]\Disc 2\08 - Thelonious Monk - Blue Monk.wav

Pre-gap length 0:00:02.35

Peak level 97.8 %
Track quality 100.0 %
Test CRC D64F55DA
Copy CRC D64F55DA
Copy OK

Track 9
Filename C:\FLAC\Thelonious Monk - The Complete Prestige Recordings (2000) [FLAC]\Disc 2\09 - Thelonious Monk, Sonny Rollins - I Want To Be Happy.wav

Pre-gap length 0:00:02.35

Peak level 94.5 %
Track quality 100.0 %
Test CRC AFD49449
Copy CRC AFD49449
Copy OK

Track 10
Filename C:\FLAC\Thelonious Monk - The Complete Prestige Recordings (2000) [FLAC]\Disc 2\10 - Thelonious Monk, Sonny Rollins - The Way You Look Tonight.wav

Pre-gap length 0:00:02.35

Peak level 94.5 %
Track quality 100.0 %
Test CRC 404D97FE
Copy CRC 404D97FE
Copy OK

Track 11
Filename C:\FLAC\Thelonious Monk - The Complete Prestige Recordings (2000) [FLAC]\Disc 2\11 - Sonny Rollins - More Than You Know.wav

Pre-gap length 0:00:02.35

Peak level 98.0 %
Track quality 100.0 %
Test CRC 24004C29
Copy CRC 24004C29
Copy OK

No errors occured


End of status report



EAC extraction logfile from 14. November 2005, 13:35 for CD
Miles Davis & The Modern Jazz Giants / The Complete Prestige Recordings (Disc 3)

Used drive : LITE-ON DVDRW SOHW-1633S Adapter: 0 ID: 0
Read mode : Secure with NO C2, accurate stream, disable cache
Read offset correction : 12
Overread into Lead-In and Lead-Out : No

Used output format : Internal WAV Routines
44.100 Hz; 16 Bit; Stereo

Other options :
Fill up missing offset samples with silence : Yes
Delete leading and trailing silent blocks : No
Installed external ASPI interface


Track 1
Filename C:\FLAC\Thelonious Monk - The Complete Prestige Recordings (2000) [FLAC]\Disc 3\01 - Bags' Groove (Take 1).wav

Pre-gap length 0:00:02.00

Peak level 98.0 %
Track quality 100.0 %
Test CRC 2D92600F
Copy CRC 2D92600F
Copy OK

Track 2
Filename C:\FLAC\Thelonious Monk - The Complete Prestige Recordings (2000) [FLAC]\Disc 3\02 - Bemsha Swing.wav

Pre-gap length 0:00:02.38

Peak level 97.7 %
Track quality 100.0 %
Test CRC E9597E96
Copy CRC E9597E96
Copy OK

Track 3
Filename C:\FLAC\Thelonious Monk - The Complete Prestige Recordings (2000) [FLAC]\Disc 3\03 - The Man I Love (Take 1).wav

Pre-gap length 0:00:02.38

Peak level 97.7 %
Track quality 100.0 %
Test CRC E1831B32
Copy CRC E1831B32
Copy OK

Track 4
Filename C:\FLAC\Thelonious Monk - The Complete Prestige Recordings (2000) [FLAC]\Disc 3\04 - Swing Spring.wav

Pre-gap length 0:00:02.38

Peak level 97.9 %
Track quality 100.0 %
Test CRC 0A20176B
Copy CRC 0A20176B
Copy OK

Track 5
Filename C:\FLAC\Thelonious Monk - The Complete Prestige Recordings (2000) [FLAC]\Disc 3\05 - Bags' Groove (Take 2).wav

Pre-gap length 0:00:02.38

Peak level 97.0 %
Track quality 99.9 %
Test CRC B777C021
Copy CRC B777C021
Copy OK

Track 6
Filename C:\FLAC\Thelonious Monk - The Complete Prestige Recordings (2000) [FLAC]\Disc 3\06 - The Man I Love (Take 2).wav

Pre-gap length 0:00:02.38

Peak level 97.7 %
Track quality 100.0 %
Test CRC 24C3DDC9
Copy CRC 24C3DDC9
Copy OK

No errors occured


End of status report


Thelonious Monk - The Complete Prestige Recordings (3CD box) (2000) **[RE-UP]**