Subcategories

Monty Alexander with Ernest Ranglin - Rocksteady (2004) {Telarc} **[RE-UP]**

Posted By: TestTickles
Monty Alexander with Ernest Ranglin - Rocksteady (2004) {Telarc} **[RE-UP]**

Monty Alexander with Ernest Ranglin - Rocksteady (2004) {Telarc}
EAC Rip | FLAC with CUE and log | scans | 349 mb
MP3 CBR 320kbps | RAR | 161 mb
Genre: jazz, reggae

Rocksteady is a 2004 CD by Monty Alexander and Ernest Ranglin. It is a tribute album to their Jamaican roots, with jazz-flavored renditions of classic ska and reggae songs. An HQ version of this album is also available, taken from the SACD so you're able to hear it in HQ 2.0 stereo and the 5.1 surround sound mix. You may click here for more information.
I first saw the name of the guitarist Ernest Ranglin on one of the few label listings on which British schoolboys could find the then very rare blues 45. Island Records had their core market among the West Indian population that had been encouraged to come to England from the late 1940s as a sort of immigrant workforce. Ranglin is now very much the veteran performer, without perhaps having been the sort of boy wonder Monty Alexander once was. Monty Alexander is now himself a veteran, with literally dozens of album releases to his name.

When he started to be heard more than thirty years back, Alexander was already a virtuoso – though the first thing I heard sounded more slick than anything else, as if he'd heard the surface of Oscar Peterson but missed out on the deeper substance: many of the same notes but not the same expression.

The impression of youth was perhaps extended to the time he played with Peterson's old mates, and his seniors by some years, Ray Brown and Herb Ellis in the trio called Triple Treat. His playing had by then put on depth, but Brown and Ellis were capable of working with whatever intrinsic qualities this pianist's music expressed and making a virtue of the breezy fleetness and easy swing Alexander had from his earliest days. You can hear them on Concord. Of course he had much more, as a the sampling of his playing in trio with Ray Brown (and Greg Hutchinson drumming?) on the recent Ray Brown memorial set made joyously blatant.

On this set, Maestri Alexander and Ranglin play in ensembles including bass and drums, sometimes bass guitar, and sometimes organ or keyboards, Alexander taking up melodica on some items – and often an extra guitar combining with a very good drummer to do the sort of regular, loping rhythmic figures characteristic of what was called ska when I scoured catalogues for, say, Homesick James. The duty of keeping the rhythm steady is duly performed, yet it does not decline into the mechanical.

Ranglin is a very capable guitarist, but I can't say he's playing jazz here without recognising that he never solos for terribly long, or that he could equally be said here simply to play very long fill-ins. Pretty much the same can be said of Alexander, whose fingers are on non-piano keyboards on some titles. He's simply a musician in a higher class of style and accomplishment than it's wise to dare to get used to in this cheerful sort of music. He has waxed lyrical in more than a handful of interviews about all the Jamaican music around him when he grew up, which was edited out from his earlier, slicker jazz playing.

Now, of course, musical fashion is all for his bringing in or surrounding himself with something like that Jamaican music, and here he's relaxing in sunny home territory, with the accent on relaxing. It's supremely tasteful rather than exciting, soothing, not shy of pop cliché though indulging in few. There are no horns, and there's no need to ever sound one. It's a melodious lope pretty well all through, with a rare exception in "Redemption Song", which begins with the kind of humming along that Jay McShann has been known to go in for. I don't know who's doing the vocalising – the reviewer's kit arrived a little short on such useful information (who are the expert other musicians?) – but the singer gets louder, and righteous, and shouting on what's like a sort of eight bar blues. The instrumental ensemble has been stripped back to piano, guitar, bass, and drums, and accordingly there's more space than on the vast majority of tracks. Mostly anytime Alexander starts to cut loose he only goes so far, and then displays exceptional finesse in merging back into the ensemble. There's nothing else to single out, though, very happy music and much more Jamaica (World!) than jazz. The notes I did get tell me Alexander cut his teeth playing on something similar with Ranglin & Co, and it might be interesting to compare the results, Heavens, forty years apart.

Monty Alexander with Ernest Ranglin - Rocksteady (2004) {Telarc} **[RE-UP]**

1. Double Barrel
2. Confucius
3. Stalag 17
4. Marcus Garvey
5. Nightwork
6. East Of The River Nile
7. Israelites
8. Row Fisherman
9. Freedom Street
10. Pressure Drop
11. At The Feast
12. Redemption Song

Monty Alexander - piano and melodica
Ernest Ranglin - lead guitar
Junior Jazz - rhythm guitar
Gary Mayone -keyboards
Hassan Shukur -acoustic bass
Quentin Baxter - drums
Courtney Panton - hand drums on "Nightwork" and "River Nile"
Toots Hibbert - vocals on "Pressure Drop"

EAC extraction logfile from 18. January 2006, 15:14 for CD
Monty Alexander with Ernest Ranglin / Rocksteady

Used drive : LITE-ON DVDRW SOHW-1633S Adapter: 0 ID: 0
Read mode : Secure with NO C2, accurate stream, disable cache
Read offset correction : 12
Overread into Lead-In and Lead-Out : No

Used output format : Internal WAV Routines
44.100 Hz; 16 Bit; Stereo

Other options :
Fill up missing offset samples with silence : Yes
Delete leading and trailing silent blocks : No
Installed external ASPI interface


Track 1
Filename D:\FLAC\Monty Alexander with Ernest Ranglin - Rocksteady (2004) [FLAC] {Telarc}\01 - Double Barrel.wav

Pre-gap length 0:00:02.00

Peak level 100.0 %
Track quality 99.9 %
Test CRC 7F45FD8E
Copy CRC 7F45FD8E
Copy OK

Track 2
Filename D:\FLAC\Monty Alexander with Ernest Ranglin - Rocksteady (2004) [FLAC] {Telarc}\02 - Confucius.wav

Pre-gap length 0:00:00.02

Peak level 100.0 %
Track quality 100.0 %
Test CRC CDC8B54B
Copy CRC CDC8B54B
Copy OK

Track 3
Filename D:\FLAC\Monty Alexander with Ernest Ranglin - Rocksteady (2004) [FLAC] {Telarc}\03 - Stalag 17.wav

Pre-gap length 0:00:00.02

Peak level 100.0 %
Track quality 100.0 %
Test CRC 184B1DCD
Copy CRC 184B1DCD
Copy OK

Track 4
Filename D:\FLAC\Monty Alexander with Ernest Ranglin - Rocksteady (2004) [FLAC] {Telarc}\04 - Marcus Garvey.wav

Peak level 100.0 %
Track quality 100.0 %
Test CRC 50F2C533
Copy CRC 50F2C533
Copy OK

Track 5
Filename D:\FLAC\Monty Alexander with Ernest Ranglin - Rocksteady (2004) [FLAC] {Telarc}\05 - Nightwork.wav

Pre-gap length 0:00:00.02

Peak level 100.0 %
Track quality 100.0 %
Test CRC AF10410B
Copy CRC AF10410B
Copy OK

Track 6
Filename D:\FLAC\Monty Alexander with Ernest Ranglin - Rocksteady (2004) [FLAC] {Telarc}\06 - East Of The River Nile.wav

Peak level 96.6 %
Track quality 100.0 %
Test CRC 8F05A28B
Copy CRC 8F05A28B
Copy OK

Track 7
Filename D:\FLAC\Monty Alexander with Ernest Ranglin - Rocksteady (2004) [FLAC] {Telarc}\07 - Israelites.wav

Pre-gap length 0:00:00.02

Peak level 100.0 %
Track quality 99.9 %
Test CRC 6689A9BD
Copy CRC 6689A9BD
Copy OK

Track 8
Filename D:\FLAC\Monty Alexander with Ernest Ranglin - Rocksteady (2004) [FLAC] {Telarc}\08 - Row Fisherman.wav

Pre-gap length 0:00:00.02

Peak level 100.0 %
Track quality 100.0 %
Test CRC 97943261
Copy CRC 97943261
Copy OK

Track 9
Filename D:\FLAC\Monty Alexander with Ernest Ranglin - Rocksteady (2004) [FLAC] {Telarc}\09 - Freedom Street.wav

Pre-gap length 0:00:00.02

Peak level 100.0 %
Track quality 99.9 %
Test CRC DE673C06
Copy CRC DE673C06
Copy OK

Track 10
Filename D:\FLAC\Monty Alexander with Ernest Ranglin - Rocksteady (2004) [FLAC] {Telarc}\10 - Pressure Drop.wav

Pre-gap length 0:00:00.02

Peak level 100.0 %
Track quality 99.9 %
Test CRC 3A9D9B6F
Copy CRC 3A9D9B6F
Copy OK

Track 11
Filename D:\FLAC\Monty Alexander with Ernest Ranglin - Rocksteady (2004) [FLAC] {Telarc}\11 - At The Feast.wav

Pre-gap length 0:00:00.01

Peak level 100.0 %
Track quality 100.0 %
Test CRC B2AD929E
Copy CRC B2AD929E
Copy OK

Track 12
Filename D:\FLAC\Monty Alexander with Ernest Ranglin - Rocksteady (2004) [FLAC] {Telarc}\12 - Redemption Song.wav

Pre-gap length 0:00:00.02

Peak level 62.6 %
Track quality 100.0 %
Test CRC DCC67844
Copy CRC DCC67844
Copy OK

No errors occured


End of status report


Monty Alexander with Ernest Ranglin - Rocksteady (2004) {Telarc} **[RE-UP]**


Check out other titles in my Avaxhome blog