Maestro Subgum & The Whole - At The Wart Hog Museum (1993) {Fot}

Posted By: TestTickles
Maestro Subgum & The Whole - At The Wart Hog Museum (1993) {Fot}

Maestro Subgum & The Whole - At The Wart Hog Museum (1993) {Fot}
EAC Rip | FLAC with CUE and log | scans | 320 mb
MP3 CBR 320kbps | RAR | 167 mb
Genre: indie rock, experimental rock

The Fot label are responsible for Maestro Subgum & The Whole's album At The Wart Hog Museum. It consists of 21 maniacal mayhem and musical fun.

Maestro Subgum & The Whole - At The Wart Hog Museum (1993) {Fot}

01. Hey Jack
02. Mister Muckraker
03. Sticky Ticky Liquid
04. Clem Pops The Question…
05. Late Night Mary
06. Constant Erection
07. Madman On The Bus
08. Amazy Grace
09. Laziness And Ignorance
10. Clem Breaks Wind…
11. Tattoos Are How You Tell
12. Why
13. Its Pithy…
14. Blue Devil
15. Prairie Night
16. Advice From An Entertainment Mogul
17. Last Gasp
18. Fat Red Melon
19. What Can Be Wanted
20. Dat Dicking…
21. Trouble

Bobby Ray-trumpet, acoustic, guitar, lead & backing vocals
Clem Of The Bogs-lead and backing vocals
Micky Da Lip-piano and keys
Jenny Twice The Magnifire-lead & backing vocals, flute
Red Ned, The Flame Haired Messenger Of Love-drums, percussion, slap and twang vocals
Sweet Muscles Messins & His No-Spaz Zoaz-sousaphone, saxophone, baritone, trombonium, backing vocals and gas hose
Mark Ray-The Squirmin German-trombone
Mr. Electricity-sound engineering, vehicle manipulation, thought
Lefty Fizzle-lead & backing vocals, cane & snarl

Produced & engineered by Spencer Sundell with James Koffee & the band
Tracks 2-3, 7-8 & 18 engineered & mixed by Ricky Barnes
Tracks 5-6 produced & engineered by Spencer Sundell
Track 21 recorded by Jim Janick
Pre-mastering by John Hughes
Mastered by J. O'Roarke

Maestro Subgum & The Whole - At The Wart Hog Museum (1993) {Fot}


EAC extraction logfile from 20. June 2017, 10:05 for CD
Maestro Subgum & The Whole / At The Wart Hog Museum

Used drive : TSSTcorpDVD+-RW TS-H653B Adapter: 2 ID: 0
Read mode : Secure with NO C2, accurate stream, disable cache
Read offset correction : 6
Overread into Lead-In and Lead-Out : No

Used output format : Internal WAV Routines
44.100 Hz; 16 Bit; Stereo

Other options :
Fill up missing offset samples with silence : Yes
Delete leading and trailing silent blocks : No
Native Win32 interface for Win NT & 2000


Track 1
Filename C:\Documents and Settings\Desktop\Maestro Subgum & The Whole - At

The Wart Hog Museum (1993) [FLAC] {Fot}\01 - Hey Jack.wav

Pre-gap length 0:00:02.00

Peak level 100.0 %
Track quality 100.0 %
Test CRC 4DFF1741
Copy CRC 4DFF1741
Copy OK

Track 2
Filename C:\Documents and Settings\Desktop\Maestro Subgum & The Whole - At

The Wart Hog Museum (1993) [FLAC] {Fot}\02 - Mister Muckraker.wav

Peak level 100.0 %
Track quality 99.9 %
Test CRC B30E83CF
Copy CRC B30E83CF
Copy OK

Track 3
Filename C:\Documents and Settings\Desktop\Maestro Subgum & The Whole - At

The Wart Hog Museum (1993) [FLAC] {Fot}\03 - Sticky Ticky Liquid.wav

Peak level 80.6 %
Track quality 99.9 %
Test CRC 37D9618E
Copy CRC 37D9618E
Copy OK

Track 4
Filename C:\Documents and Settings\Desktop\Maestro Subgum & The Whole - At

The Wart Hog Museum (1993) [FLAC] {Fot}\04 - Clem Pops The Question….wav

Peak level 43.8 %
Track quality 99.1 %
Test CRC A5997606
Copy CRC A5997606
Copy OK

Track 5
Filename C:\Documents and Settings\Desktop\Maestro Subgum & The Whole - At

The Wart Hog Museum (1993) [FLAC] {Fot}\05 - Late Night Mary.wav

Peak level 99.3 %
Track quality 100.0 %
Test CRC BF693147
Copy CRC BF693147
Copy OK

Track 6
Filename C:\Documents and Settings\Desktop\Maestro Subgum & The Whole - At

The Wart Hog Museum (1993) [FLAC] {Fot}\06 - Constant Erection.wav

Peak level 85.7 %
Track quality 100.0 %
Test CRC C9A1083E
Copy CRC C9A1083E
Copy OK

Track 7
Filename C:\Documents and Settings\Desktop\Maestro Subgum & The Whole - At

The Wart Hog Museum (1993) [FLAC] {Fot}\07 - Madman On The Bus.wav

Peak level 96.8 %
Track quality 100.0 %
Test CRC 209345C4
Copy CRC 209345C4
Copy OK

Track 8
Filename C:\Documents and Settings\Desktop\Maestro Subgum & The Whole - At

The Wart Hog Museum (1993) [FLAC] {Fot}\08 - Amazy Grace.wav

Peak level 100.0 %
Track quality 100.0 %
Test CRC E8425541
Copy CRC E8425541
Copy OK

Track 9
Filename C:\Documents and Settings\Desktop\Maestro Subgum & The Whole - At

The Wart Hog Museum (1993) [FLAC] {Fot}\09 - Laziness And Ignorance.wav

Peak level 100.0 %
Track quality 100.0 %
Test CRC 1BA8AB5B
Copy CRC 1BA8AB5B
Copy OK

Track 10
Filename C:\Documents and Settings\Desktop\Maestro Subgum & The Whole - At

The Wart Hog Museum (1993) [FLAC] {Fot}\10 - Clem Breaks Wind….wav

Peak level 9.9 %
Track quality 100.0 %
Test CRC 01AD0ADF
Copy CRC 01AD0ADF
Copy OK

Track 11
Filename C:\Documents and Settings\Desktop\Maestro Subgum & The Whole - At

The Wart Hog Museum (1993) [FLAC] {Fot}\11 - Tattoos Are How You Tell.wav

Peak level 100.0 %
Track quality 100.0 %
Test CRC FAE3B0B4
Copy CRC FAE3B0B4
Copy OK

Track 12
Filename C:\Documents and Settings\Desktop\Maestro Subgum & The Whole - At

The Wart Hog Museum (1993) [FLAC] {Fot}\12 - Why .wav

Peak level 100.0 %
Track quality 100.0 %
Test CRC E6317F46
Copy CRC E6317F46
Copy OK

Track 13
Filename C:\Documents and Settings\Desktop\Maestro Subgum & The Whole - At

The Wart Hog Museum (1993) [FLAC] {Fot}\13 - Its Pithy….wav

Peak level 30.3 %
Track quality 99.2 %
Test CRC A0BCE460
Copy CRC A0BCE460
Copy OK

Track 14
Filename C:\Documents and Settings\Desktop\Maestro Subgum & The Whole - At

The Wart Hog Museum (1993) [FLAC] {Fot}\14 - Blue Devil.wav

Peak level 98.4 %
Track quality 100.0 %
Test CRC 5BB61F12
Copy CRC 5BB61F12
Copy OK

Track 15
Filename C:\Documents and Settings\Desktop\Maestro Subgum & The Whole - At

The Wart Hog Museum (1993) [FLAC] {Fot}\15 - Prairie Night.wav

Peak level 100.0 %
Track quality 99.9 %
Test CRC 0799BBDF
Copy CRC 0799BBDF
Copy OK

Track 16
Filename C:\Documents and Settings\Desktop\Maestro Subgum & The Whole - At

The Wart Hog Museum (1993) [FLAC] {Fot}\16 - Advice From An Entertainment

Mogul.wav

Peak level 79.6 %
Track quality 100.0 %
Test CRC C475BA06
Copy CRC C475BA06
Copy OK

Track 17
Filename C:\Documents and Settings\Desktop\Maestro Subgum & The Whole - At

The Wart Hog Museum (1993) [FLAC] {Fot}\17 - Last Gasp.wav

Peak level 100.0 %
Track quality 100.0 %
Test CRC B23FE3AA
Copy CRC B23FE3AA
Copy OK

Track 18
Filename C:\Documents and Settings\Desktop\Maestro Subgum & The Whole - At

The Wart Hog Museum (1993) [FLAC] {Fot}\18 - Fat Red Melon.wav

Peak level 100.0 %
Track quality 99.9 %
Test CRC 53263946
Copy CRC 53263946
Copy OK

Track 19
Filename C:\Documents and Settings\Desktop\Maestro Subgum & The Whole - At

The Wart Hog Museum (1993) [FLAC] {Fot}\19 - What Can Be Wanted.wav

Peak level 100.0 %
Track quality 100.0 %
Test CRC AF582576
Copy CRC AF582576
Copy OK

Track 20
Filename C:\Documents and Settings\Desktop\Maestro Subgum & The Whole - At

The Wart Hog Museum (1993) [FLAC] {Fot}\20 - Dat Dicking….wav

Peak level 32.9 %
Track quality 100.0 %
Test CRC D52B0884
Copy CRC D52B0884
Copy OK

Track 21
Filename C:\Documents and Settings\Desktop\Maestro Subgum & The Whole - At

The Wart Hog Museum (1993) [FLAC] {Fot}\21 - Trouble.wav

Peak level 100.0 %
Track quality 100.0 %
Test CRC 3507945A
Copy CRC 3507945A
Copy OK

No errors occured


End of status report


Maestro Subgum & The Whole - At The Wart Hog Museum (1993) {Fot}