Subcategories

Mason - Harbour (1971) {1999 Gear Fab}

Posted By: TestTickles
Mason - Harbour (1971) {1999 Gear Fab}

Mason - Harbour (1971) {1999 Gear Fab}
EAC Rip | FLAC with CUE and LOG | scans | 303 mb
MP3 CBR 320 kbps | RAR | 109 mb
Genre: psychedelic rock

Harbour is the 1971 album by Mason. This was reissued and released in 1999 by the Gear Fab label with two bonus tracks.

(If you would like a higher quality FLAC from a 2015 remaster done in 24-bit/96 kHz without the bonus tracks. please click here..)

Mason - Harbour (1971) {1999 Gear Fab}

01. Let It Burn
02. Tell Me
03. Electric Sox And All
04. Golden Sails
05. Travelin'
06. Harbour
07. Goin' Home
08. Charlotte
09. Carry Me Home (Bonus Track)
10. One More Drink (Bonus Track)

EAC extraction logfile from 27. April 2007, 22:53 for CD
Mason / Harbour

Used drive : Optiarc DVD RW AD-7530A Adapter: 1 ID: 0
Read mode : Secure with NO C2, accurate stream, disable cache
Read offset correction : 48
Overread into Lead-In and Lead-Out : No

Used output format : Internal WAV Routines
44.100 Hz; 16 Bit; Stereo

Other options :
Fill up missing offset samples with silence : Yes
Delete leading and trailing silent blocks : No
Installed external ASPI interface


Track 1
Filename C:\cuntfist\FLAC\Mason - Harbour (1971) [FLAC] {1999 Gear Fab}\01 - Let It Burn.wav

Pre-gap length 0:00:02.00

Peak level 96.5 %
Track quality 99.9 %
Test CRC BF7AFB60
Copy CRC BF7AFB60
Copy OK

Track 2
Filename C:\cuntfist\FLAC\Mason - Harbour (1971) [FLAC] {1999 Gear Fab}\02 - Tell Me.wav

Peak level 96.6 %
Track quality 100.0 %
Test CRC E9CC753F
Copy CRC E9CC753F
Copy OK

Track 3
Filename C:\cuntfist\FLAC\Mason - Harbour (1971) [FLAC] {1999 Gear Fab}\03 - Electric Sox And All.wav

Peak level 96.6 %
Track quality 100.0 %
Test CRC 5FC10F85
Copy CRC 5FC10F85
Copy OK

Track 4
Filename C:\cuntfist\FLAC\Mason - Harbour (1971) [FLAC] {1999 Gear Fab}\04 - Golden Sails.wav

Peak level 84.1 %
Track quality 99.9 %
Test CRC D44379E7
Copy CRC D44379E7
Copy OK

Track 5
Filename C:\cuntfist\FLAC\Mason - Harbour (1971) [FLAC] {1999 Gear Fab}\05 - Travelin'.wav

Peak level 100.0 %
Track quality 100.0 %
Test CRC 575D7E26
Copy CRC 575D7E26
Copy OK

Track 6
Filename C:\cuntfist\FLAC\Mason - Harbour (1971) [FLAC] {1999 Gear Fab}\06 - Harbour.wav

Peak level 96.6 %
Track quality 100.0 %
Test CRC 8800ABC4
Copy CRC 8800ABC4
Copy OK

Track 7
Filename C:\cuntfist\FLAC\Mason - Harbour (1971) [FLAC] {1999 Gear Fab}\07 - Goin' Home.wav

Peak level 96.6 %
Track quality 100.0 %
Test CRC 71C15387
Copy CRC 71C15387
Copy OK

Track 8
Filename C:\cuntfist\FLAC\Mason - Harbour (1971) [FLAC] {1999 Gear Fab}\08 - Charlotte.wav

Peak level 96.5 %
Track quality 100.0 %
Test CRC 5850B4AD
Copy CRC 5850B4AD
Copy OK

Track 9
Filename C:\cuntfist\FLAC\Mason - Harbour (1971) [FLAC] {1999 Gear Fab}\09 - Carry Me Home.wav

Peak level 81.9 %
Track quality 100.0 %
Test CRC E6F64BFB
Copy CRC E6F64BFB
Copy OK

Track 10
Filename C:\cuntfist\FLAC\Mason - Harbour (1971) [FLAC] {1999 Gear Fab}\10 - One More Drink.wav

Peak level 80.9 %
Track quality 100.0 %
Test CRC 5525A15C
Copy CRC 5525A15C
Copy OK

No errors occured


End of status report


Mason - Harbour (1971) {1999 Gear Fab}


Thank you to the original uploader.