Subcategories

Marlena Shaw - Anthology (2000) {Soul Brother/Passion Music Ltd.} **[RE-UP]**

Posted By: TestTickles
Marlena Shaw - Anthology (2000) {Soul Brother/Passion Music Ltd.} **[RE-UP]**

Marlena Shaw - Anthology (2000) {Soul Brother/Passion Music Ltd.}
EAC Rip | FLAC with CUE and log | scans | 448 mb
MP3 CBR 320kbps | RAR | 177 mb
Genre: R&B, soul, vocal jazz, disco

Anthology is a 2000 retrospective CD by soul singer Marlena Shaw. No credits or anything, but it is a legitimate UK release featuring highlights of her recordings with Cadet, Blue Note, and Columbia, and two tracks from 1983 when she released an album on South Bay, and her collaboration with Phil Upchurch, "Could It Be You". Anyone unfamiliar with this self-proclaimed "bitch" will find 16 good reasons to become familiar. This was released on Soul Brothers Records via Passion Music Ltd.

Marlena Shaw - Anthology (2000) {Soul Brother/Passion Music Ltd.} **[RE-UP]**

01. Woman Of The Ghetto
02. California Soul
03. Mercy Mercy Mercy
04. Wade In The Water
05. Liberation Conversation
06. Loving You Was Like A Party
07. The Feeling's Good
08. So Far Away
09. Feel Like Making Love
10. Yu Ma/Go Away Little Boy
11. Rhythm Of Love
12. Without You In My Life
13. Look At Me, Look At You (We're Flying)
14. Back For More
15. You Bring Out The Best In Me
16. Could It Be You (featuring Phil Upchurch)

EAC extraction logfile from 9. September 2007, 7:54 for CD
Marlena Shaw / Anthology

Used drive : LITE-ON DVDRW SOHW-1633S Adapter: 0 ID: 0
Read mode : Secure with NO C2, accurate stream, disable cache
Read offset correction : 12
Overread into Lead-In and Lead-Out : No

Used output format : Internal WAV Routines
44.100 Hz; 16 Bit; Stereo

Other options :
Fill up missing offset samples with silence : Yes
Delete leading and trailing silent blocks : No
Installed external ASPI interface


Track 1
Filename D:\FLAC\Marlena Shaw - Anthology (2000) [FLAC] {Soul Brother, Passion Music Ltd.}\01 - Woman Of The Ghetto.wav

Pre-gap length 0:00:02.00

Peak level 99.9 %
Track quality 100.0 %
Test CRC 86989768
Copy CRC 86989768
Copy OK

Track 2
Filename D:\FLAC\Marlena Shaw - Anthology (2000) [FLAC] {Soul Brother, Passion Music Ltd.}\02 - California Soul.wav

Pre-gap length 0:00:02.04

Peak level 87.9 %
Track quality 99.9 %
Test CRC 22E22175
Copy CRC 22E22175
Copy OK

Track 3
Filename D:\FLAC\Marlena Shaw - Anthology (2000) [FLAC] {Soul Brother, Passion Music Ltd.}\03 - Mercy Mercy Mercy.wav

Pre-gap length 0:00:03.33

Peak level 86.3 %
Track quality 100.0 %
Test CRC 49DD3AB1
Copy CRC 49DD3AB1
Copy OK

Track 4
Filename D:\FLAC\Marlena Shaw - Anthology (2000) [FLAC] {Soul Brother, Passion Music Ltd.}\04 - Wade In The Water.wav

Pre-gap length 0:00:03.42

Peak level 83.8 %
Track quality 100.0 %
Test CRC 325FEDB1
Copy CRC 325FEDB1
Copy OK

Track 5
Filename D:\FLAC\Marlena Shaw - Anthology (2000) [FLAC] {Soul Brother, Passion Music Ltd.}\05 - Liberation Conversation.wav

Pre-gap length 0:00:03.10

Peak level 88.3 %
Track quality 100.0 %
Test CRC 33F9DA25
Copy CRC 33F9DA25
Copy OK

Track 6
Filename D:\FLAC\Marlena Shaw - Anthology (2000) [FLAC] {Soul Brother, Passion Music Ltd.}\06 - Loving You Was Like A Party.wav

Pre-gap length 0:00:03.00

Peak level 86.8 %
Track quality 100.0 %
Test CRC 95B3ACF1
Copy CRC 95B3ACF1
Copy OK

Track 7
Filename D:\FLAC\Marlena Shaw - Anthology (2000) [FLAC] {Soul Brother, Passion Music Ltd.}\07 - The Feeling's Good.wav

Pre-gap length 0:00:03.40

Peak level 100.0 %
Track quality 100.0 %
Test CRC 9065ED9D
Copy CRC 9065ED9D
Copy OK

Track 8
Filename D:\FLAC\Marlena Shaw - Anthology (2000) [FLAC] {Soul Brother, Passion Music Ltd.}\08 - So Far Away.wav

Pre-gap length 0:00:03.37

Peak level 95.7 %
Track quality 100.0 %
Test CRC F69D771B
Copy CRC F69D771B
Copy OK

Track 9
Filename D:\FLAC\Marlena Shaw - Anthology (2000) [FLAC] {Soul Brother, Passion Music Ltd.}\09 - Feel Like Making Love.wav

Pre-gap length 0:00:03.24

Peak level 100.0 %
Track quality 100.0 %
Test CRC F67BBEDD
Copy CRC F67BBEDD
Copy OK

Track 10
Filename D:\FLAC\Marlena Shaw - Anthology (2000) [FLAC] {Soul Brother, Passion Music Ltd.}\10 - Yu Ma, Go Away Little Boy.wav

Pre-gap length 0:00:03.24

Peak level 97.8 %
Track quality 100.0 %
Test CRC 22FD84F8
Copy CRC 22FD84F8
Copy OK

Track 11
Filename D:\FLAC\Marlena Shaw - Anthology (2000) [FLAC] {Soul Brother, Passion Music Ltd.}\11 - Rhythm Of Love.wav

Pre-gap length 0:00:03.04

Peak level 91.8 %
Track quality 99.9 %
Test CRC 842464E8
Copy CRC 842464E8
Copy OK

Track 12
Filename D:\FLAC\Marlena Shaw - Anthology (2000) [FLAC] {Soul Brother, Passion Music Ltd.}\12 - Without You In My Life.wav

Pre-gap length 0:00:03.09

Peak level 93.5 %
Track quality 100.0 %
Test CRC E5E716D7
Copy CRC E5E716D7
Copy OK

Track 13
Filename D:\FLAC\Marlena Shaw - Anthology (2000) [FLAC] {Soul Brother, Passion Music Ltd.}\13 - Look At Me, Look At You (We're Flying).wav

Pre-gap length 0:00:03.14

Peak level 98.2 %
Track quality 100.0 %
Test CRC 3CA44D00
Copy CRC 3CA44D00
Copy OK

Track 14
Filename D:\FLAC\Marlena Shaw - Anthology (2000) [FLAC] {Soul Brother, Passion Music Ltd.}\14 - Back For More.wav

Pre-gap length 0:00:03.36

Peak level 95.5 %
Track quality 100.0 %
Test CRC E09873BD
Copy CRC E09873BD
Copy OK

Track 15
Filename D:\FLAC\Marlena Shaw - Anthology (2000) [FLAC] {Soul Brother, Passion Music Ltd.}\15 - You Bring Out The Best In Me.wav

Pre-gap length 0:00:03.06

Peak level 94.3 %
Track quality 100.0 %
Test CRC 6BC8D292
Copy CRC 6BC8D292
Copy OK

Track 16
Filename D:\FLAC\Marlena Shaw - Anthology (2000) [FLAC] {Soul Brother, Passion Music Ltd.}\16 - Could It Be You.wav

Pre-gap length 0:00:03.09

Peak level 88.3 %
Track quality 100.0 %
Test CRC 35A93C52
Copy CRC 35A93C52
Copy OK

No errors occured


End of status report


Marlena Shaw - Anthology (2000) {Soul Brother/Passion Music Ltd.} **[RE-UP]**