Subcategories

MC Squared - Tantalizing Colours: The Reprise Recordings (2012)

Posted By: v3122
MC Squared - Tantalizing Colours: The Reprise Recordings (2012)

MC Squared - Tantalizing Colours: The Reprise Recordings (2012)
EAC | Flac(Image) + Cue + Log & MP3 CBR 320Kbps
Now Sounds, CRNOW 34 | ~ 349 or 145 Mb | Scans Included
Baroque Pop, Sunshine Pop, Psychedelic Pop

Repressing of this UK collection. MC Squared-featuring folk renegades from the Back Porch Majority, as well as legendary studio musicians Jim Keltner and Randy Sterling-recorded four exciting singles for Reprise Records during 1967 and 1968. Sounding like a unique hybrid of the Mamas and the Papas and Jefferson Airplane, the Los Angeles-based quintet failed to generate commercial success, and as a result their long-lost 1968 album has since been confined to the vaults… until now! The CD contains their four Reprise singles, two of which were produced by Lenny Waronker (Van Dyke Parks, Randy Newman, Beau Brummels), as well as the material that was to comprise their debut LP, all sourced from the original master tapes! Filled with brilliant harmonies and psychedelically experimental left turns, MC Squared will appeal to fans of Curt Boettcher, Eternity's Children, and the Millennium/Ballroom. The 16-page, full-color booklet includes rare, previously unpublished photos, and extensive liner notes featuring the participation of original band members.

~ amazon
MC Squared - Tantalizing Colours: The Reprise Recordings (2012)


MC Squared - Tantalizing Colours: The Reprise Recordings (2012):

MC Squared - Tantalizing Colours: The Reprise Recordings (2012)

Tracklist:

01. Bornatzatt 03:04
02. Ghost Of Man 02:45
03. Do You Care 03:18
04. Miss Abercrombie 02:21
05. The Stoning Of The Quiet Man 02:51
06. Tantalizing Colours 03:58
07. Smilin' 02:41
08. The Dolphins 03:44
09. Adults Only 02:31
10. Everybody's Talkin' 03:09
11. You Are Lovely 03:02
12. Karneeval 03:22

Bonus Tracks:
13. Or Something (Single A-Side) 03:01
14. Or Something (Instrumental) 03:01
15. S.S.T. (Single A-Side) 03:05
16. My Mind Goes High (Single B-Side) 02:39
17. Smilin' (Single A-Side) 02:41
18. That's The Word (Single B-Side) 02:33
19. I Know You (Your Nature Is Like Mine) (Single B-Side) 03:51
20. Time Will Equalize (Previously Unreleased) 02:27

Musicians:

Linda Carey - Vocals
Michael Clough - Guitar, Vocals
Michael Crowley - Lead Guitar, Vocals
Randy Cierley-Steirling - Bass
Jim Keltner - Drums, Percussion


Exact Audio Copy V1.0 beta 3 from 29. August 2011

EAC extraction logfile from 10. July 2014, 15:54

MC Squared / Tantalizing Colours - The Reprise Recordings

Used drive : TSSTcorpCDDVDW SE-S084F Adapter: 1 ID: 0

Read mode : Secure
Utilize accurate stream : Yes
Defeat audio cache : Yes
Make use of C2 pointers : No

Read offset correction : 6
Overread into Lead-In and Lead-Out : No
Fill up missing offset samples with silence : Yes
Delete leading and trailing silent blocks : No
Null samples used in CRC calculations : Yes
Used interface : Native Win32 interface for Win NT & 2000
Gap handling : Appended to previous track

Used output format : User Defined Encoder
Selected bitrate : 1024 kBit/s
Quality : High
Add ID3 tag : No
Command line compressor : C:\Program Files (x86)\Exact Audio Copy\Flac\flac.exe
Additional command line options : -8 -V -T "ARTIST=%artist%" -T "TITLE=%title%" -T "ALBUM=%albumtitle%" -T "DATE=%year%" -T "TRACKNUMBER=%tracknr%" -T "GENRE=%genre%" -T "PERFORMER=%albuminterpret%" -T "COMPOSER=%composer%" %haslyrics%–tag-from-file=LYRICS="%lyricsfile%"%haslyrics% -T "ALBUMARTIST=%albumartist%" -T "DISCNUMBER=%cdnumber%" -T "TOTALDISCS=%totalcds%" -T "TOTALTRACKS=%numtracks%" -T "COMMENT=%comment%" %source% -o %dest%


TOC of the extracted CD

Track | Start | Length | Start sector | End sector
––––––––––––––––––––––––––––-
1 | 0:00.00 | 3:03.60 | 0 | 13784
2 | 3:03.60 | 2:44.72 | 13785 | 26156
3 | 5:48.57 | 3:17.43 | 26157 | 40974
4 | 9:06.25 | 2:20.51 | 40975 | 51525
5 | 11:27.01 | 2:51.29 | 51526 | 64379
6 | 14:18.30 | 3:58.24 | 64380 | 82253
7 | 18:16.54 | 2:41.18 | 82254 | 94346
8 | 20:57.72 | 3:43.53 | 94347 | 111124
9 | 24:41.50 | 2:30.73 | 111125 | 122447
10 | 27:12.48 | 3:08.57 | 122448 | 136604
11 | 30:21.30 | 3:01.73 | 136605 | 150252
12 | 33:23.28 | 3:21.58 | 150253 | 165385
13 | 36:45.11 | 3:00.56 | 165386 | 178941
14 | 39:45.67 | 3:01.00 | 178942 | 192516
15 | 42:46.67 | 3:04.69 | 192517 | 206385
16 | 45:51.61 | 2:38.51 | 206386 | 218286
17 | 48:30.37 | 2:40.64 | 218287 | 230350
18 | 51:11.26 | 2:32.51 | 230351 | 241801
19 | 53:44.02 | 3:51.37 | 241802 | 259163
20 | 57:35.39 | 2:27.04 | 259164 | 270192


Track 1

Filename C:\Users\ian\Desktop\MC Squared - Tantalizing Colours The Reprise Recordings (1967-68) [FLAC]\01 - Bornatzatt.wav

Pre-gap length 0:00:02.00

Peak level 82.9 %
Extraction speed 2.1 X
Track quality 100.0 %
Test CRC 10A6B817
Copy CRC 10A6B817
Accurately ripped (confidence 6) [57B703B5] (AR v2)
Copy OK

Track 2

Filename C:\Users\ian\Desktop\MC Squared - Tantalizing Colours The Reprise Recordings (1967-68) [FLAC]\02 - Ghost Of Man.wav

Pre-gap length 0:00:02.00

Peak level 86.9 %
Extraction speed 2.3 X
Track quality 100.0 %
Test CRC 1149A941
Copy CRC 1149A941
Accurately ripped (confidence 6) [6E938787] (AR v2)
Copy OK

Track 3

Filename C:\Users\ian\Desktop\MC Squared - Tantalizing Colours The Reprise Recordings (1967-68) [FLAC]\03 - Do You Care.wav

Peak level 86.9 %
Extraction speed 2.5 X
Track quality 100.0 %
Test CRC 99473C3F
Copy CRC 99473C3F
Accurately ripped (confidence 6) [32377530] (AR v2)
Copy OK

Track 4

Filename C:\Users\ian\Desktop\MC Squared - Tantalizing Colours The Reprise Recordings (1967-68) [FLAC]\04 - Miss Abercrombie.wav

Pre-gap length 0:00:02.00

Peak level 82.4 %
Extraction speed 2.4 X
Track quality 100.0 %
Test CRC 7CFA8297
Copy CRC 7CFA8297
Accurately ripped (confidence 6) [A69036F5] (AR v2)
Copy OK

Track 5

Filename C:\Users\ian\Desktop\MC Squared - Tantalizing Colours The Reprise Recordings (1967-68) [FLAC]\05 - The Stoning Of The Quiet Man.wav

Pre-gap length 0:00:02.00

Peak level 86.8 %
Extraction speed 2.7 X
Track quality 100.0 %
Test CRC 20B347D7
Copy CRC 20B347D7
Accurately ripped (confidence 6) [CB4AC454] (AR v2)
Copy OK

Track 6

Filename C:\Users\ian\Desktop\MC Squared - Tantalizing Colours The Reprise Recordings (1967-68) [FLAC]\06 - Tantalizing Colours.wav

Pre-gap length 0:00:02.00

Peak level 81.3 %
Extraction speed 3.0 X
Track quality 100.0 %
Test CRC 4C3C66BC
Copy CRC 4C3C66BC
Accurately ripped (confidence 6) [619AE4EF] (AR v2)
Copy OK

Track 7

Filename C:\Users\ian\Desktop\MC Squared - Tantalizing Colours The Reprise Recordings (1967-68) [FLAC]\07 - Smilin'.wav

Pre-gap length 0:00:02.00

Peak level 82.3 %
Extraction speed 2.9 X
Track quality 100.0 %
Test CRC 869C2C7A
Copy CRC 869C2C7A
Accurately ripped (confidence 6) [E555B62C] (AR v2)
Copy OK

Track 8

Filename C:\Users\ian\Desktop\MC Squared - Tantalizing Colours The Reprise Recordings (1967-68) [FLAC]\08 - The Dolphins.wav

Pre-gap length 0:00:02.00

Peak level 81.9 %
Extraction speed 3.2 X
Track quality 100.0 %
Test CRC 3ED07023
Copy CRC 3ED07023
Accurately ripped (confidence 6) [2D302B3B] (AR v2)
Copy OK

Track 9

Filename C:\Users\ian\Desktop\MC Squared - Tantalizing Colours The Reprise Recordings (1967-68) [FLAC]\09 - Adults Only.wav

Pre-gap length 0:00:02.25

Peak level 83.9 %
Extraction speed 3.1 X
Track quality 100.0 %
Test CRC 2920BFEB
Copy CRC 2920BFEB
Accurately ripped (confidence 6) [816873F5] (AR v2)
Copy OK

Track 10

Filename C:\Users\ian\Desktop\MC Squared - Tantalizing Colours The Reprise Recordings (1967-68) [FLAC]\10 - Everybody's Talkin'.wav

Pre-gap length 0:00:02.00

Peak level 81.9 %
Extraction speed 3.3 X
Track quality 100.0 %
Test CRC 0D4CE70B
Copy CRC 0D4CE70B
Accurately ripped (confidence 6) [4E1A3300] (AR v2)
Copy OK

Track 11

Filename C:\Users\ian\Desktop\MC Squared - Tantalizing Colours The Reprise Recordings (1967-68) [FLAC]\11 - You Are Lovely.wav

Pre-gap length 0:00:02.00

Peak level 88.6 %
Extraction speed 3.4 X
Track quality 100.0 %
Test CRC C871A7B8
Copy CRC C871A7B8
Accurately ripped (confidence 6) [C7417B51] (AR v2)
Copy OK

Track 12

Filename C:\Users\ian\Desktop\MC Squared - Tantalizing Colours The Reprise Recordings (1967-68) [FLAC]\12 - Karneeval.wav

Pre-gap length 0:00:02.50

Peak level 80.3 %
Extraction speed 3.6 X
Track quality 100.0 %
Test CRC AB6E0AC9
Copy CRC AB6E0AC9
Accurately ripped (confidence 6) [FAADE8AA] (AR v2)
Copy OK

Track 13

Filename C:\Users\ian\Desktop\MC Squared - Tantalizing Colours The Reprise Recordings (1967-68) [FLAC]\13 - Or Something (Single A-Side).wav

Pre-gap length 0:00:03.00

Peak level 76.4 %
Extraction speed 3.6 X
Track quality 100.0 %
Test CRC 2B8AF75F
Copy CRC 2B8AF75F
Accurately ripped (confidence 6) [0BAAFDFA] (AR v2)
Copy OK

Track 14

Filename C:\Users\ian\Desktop\MC Squared - Tantalizing Colours The Reprise Recordings (1967-68) [FLAC]\14 - Or Something (Instrumental).wav

Pre-gap length 0:00:02.00

Peak level 76.0 %
Extraction speed 3.7 X
Track quality 100.0 %
Test CRC FB643661
Copy CRC FB643661
Accurately ripped (confidence 6) [5954989D] (AR v2)
Copy OK

Track 15

Filename C:\Users\ian\Desktop\MC Squared - Tantalizing Colours The Reprise Recordings (1967-68) [FLAC]\15 - S.S.T. (Single A-Side).wav

Pre-gap length 0:00:02.50

Peak level 86.0 %
Extraction speed 3.3 X
Track quality 99.9 %
Test CRC A434B5BE
Copy CRC A434B5BE
Accurately ripped (confidence 5) [CDDE8418] (AR v2)
Copy OK

Track 16

Filename C:\Users\ian\Desktop\MC Squared - Tantalizing Colours The Reprise Recordings (1967-68) [FLAC]\16 - My Mind Goes High (Single B-Side).wav

Pre-gap length 0:00:02.50

Peak level 88.3 %
Extraction speed 3.2 X
Track quality 99.9 %
Test CRC 53DBEFEC
Copy CRC 53DBEFEC
Accurately ripped (confidence 5) [45351A8E] (AR v2)
Copy OK

Track 17

Filename C:\Users\ian\Desktop\MC Squared - Tantalizing Colours The Reprise Recordings (1967-68) [FLAC]\17 - Smilin' (Single A-Side).wav

Pre-gap length 0:00:02.50

Peak level 82.0 %
Extraction speed 3.8 X
Track quality 100.0 %
Test CRC A67D1EF9
Copy CRC A67D1EF9
Accurately ripped (confidence 6) [B63745CB] (AR v2)
Copy OK

Track 18

Filename C:\Users\ian\Desktop\MC Squared - Tantalizing Colours The Reprise Recordings (1967-68) [FLAC]\18 - That's The Word (Single B-Side).wav

Pre-gap length 0:00:02.00

Peak level 82.3 %
Extraction speed 3.9 X
Track quality 100.0 %
Test CRC 660EE187
Copy CRC 660EE187
Accurately ripped (confidence 6) [F673C245] (AR v2)
Copy OK

Track 19

Filename C:\Users\ian\Desktop\MC Squared - Tantalizing Colours The Reprise Recordings (1967-68) [FLAC]\19 - I Know You (Your Nature Is Like Mine) (Single B-Side).wav

Pre-gap length 0:00:02.00

Peak level 82.5 %
Extraction speed 4.3 X
Track quality 100.0 %
Test CRC 390CEEB7
Copy CRC 390CEEB7
Accurately ripped (confidence 6) [B0F53941] (AR v2)
Copy OK

Track 20

Filename C:\Users\ian\Desktop\MC Squared - Tantalizing Colours The Reprise Recordings (1967-68) [FLAC]\20 - Time Will Equalize (Previously Unreleased).wav

Pre-gap length 0:00:02.50

Peak level 82.2 %
Extraction speed 3.3 X
Track quality 99.9 %
Test CRC 1026743D
Copy CRC 1026743D
Accurately ripped (confidence 6) [545FB22A] (AR v2)
Copy OK


All tracks accurately ripped

No errors occurred

End of status report

–– CUETools DB Plugin V2.1.3

[CTDB TOCID: VJFkgPL0wBTSzGArR_yxt8gF2Gw-] found, Submit result: VJFkgPL0wBTSzGArR_yxt8gF2Gw- has been confirmed
[e71dfccc] (2/2) Accurately ripped


==== Log checksum FDE5F856A951FFE6976EFA731315E01F11DAD8617BA26616002C04AD61912FAF ====

foobar2000 1.2.9 / Dynamic Range Meter 1.1.1
log date: 2016-01-04 16:11:39

––––––––––––––––––––––––––––––––––––––––
Analyzed: MC Squared / Tantalizing Colours - The Reprise Recordings
––––––––––––––––––––––––––––––––––––––––

DR Peak RMS Duration Track
––––––––––––––––––––––––––––––––––––––––
DR9 -1.63 dB -13.84 dB 3:04 01-Bornatzatt
DR10 -1.21 dB -15.00 dB 2:45 02-Ghost Of Man
DR9 -1.22 dB -13.50 dB 3:18 03-Do You Care
DR9 -1.68 dB -12.57 dB 2:21 04-Miss Abercrombie
DR10 -1.23 dB -14.28 dB 2:51 05-The Stoning Of The Quiet Man
DR10 -1.79 dB -14.55 dB 3:58 06-Tantalizing Colours
DR9 -1.68 dB -12.45 dB 2:41 07-Smilin'
DR11 -1.73 dB -15.63 dB 3:44 08-The Dolphins
DR9 -1.52 dB -13.31 dB 2:31 09-Adults Only
DR9 -1.73 dB -14.39 dB 3:09 10-Everybody's Talkin'
DR10 -1.05 dB -14.40 dB 3:02 11-You Are Lovely
DR10 -1.90 dB -13.60 dB 3:22 12-Karneeval
DR9 -2.34 dB -13.08 dB 3:01 13-Or Something (Single A-Side)
DR11 -2.38 dB -14.61 dB 3:01 14-Or Something (Instrumental)
DR10 -1.31 dB -13.34 dB 3:05 15-S.S.T. (Single A-Side)
DR11 -1.08 dB -13.13 dB 2:39 16-My Mind Goes High (Single B-Side)
DR9 -1.71 dB -11.91 dB 2:41 17-Smilin' (Single A-Side)
DR8 -1.69 dB -11.67 dB 2:33 18-That's The Word (Single B-Side)
DR9 -1.67 dB -13.49 dB 3:51 19-I Know You (Your Nature Is Like Mine) (Single B-Side)
DR10 -1.69 dB -12.90 dB 2:27 20-Time Will Equalize (Previously Unreleased)
––––––––––––––––––––––––––––––––––––––––

Number of tracks: 20
Official DR value: DR10

Samplerate: 44100 Hz
Channels: 2
Bits per sample: 16
Bitrate: 782 kbps
Codec: FLAC

[CUETools log; Date: 05.01.2016 6:47:24; Version: 2.1.4]
[CTDB TOCID: VJFkgPL0wBTSzGArR_yxt8gF2Gw-] found.
Track | CTDB Status
1 | (5/5) Accurately ripped
2 | (5/5) Accurately ripped
3 | (5/5) Accurately ripped
4 | (5/5) Accurately ripped
5 | (5/5) Accurately ripped
6 | (5/5) Accurately ripped
7 | (5/5) Accurately ripped
8 | (5/5) Accurately ripped
9 | (5/5) Accurately ripped
10 | (5/5) Accurately ripped
11 | (5/5) Accurately ripped
12 | (5/5) Accurately ripped
13 | (5/5) Accurately ripped
14 | (5/5) Accurately ripped
15 | (5/5) Accurately ripped
16 | (5/5) Accurately ripped
17 | (5/5) Accurately ripped
18 | (5/5) Accurately ripped
19 | (5/5) Accurately ripped
20 | (5/5) Accurately ripped
[AccurateRip ID: 002b97b3-027fc79f-250e1214] found.
Track [ CRC | V2 ] Status
01 [19a40c85|57b703b5] (0+6/6) Accurately ripped
02 [e56c2d80|6e938787] (0+6/6) Accurately ripped
03 [be0a5696|32377530] (0+6/6) Accurately ripped
04 [290d1636|a69036f5] (0+6/6) Accurately ripped
05 [b3619f8d|cb4ac454] (0+6/6) Accurately ripped
06 [eba39eae|619ae4ef] (0+6/6) Accurately ripped
07 [e679cb30|e555b62c] (0+6/6) Accurately ripped
08 [490b51c0|2d302b3b] (0+6/6) Accurately ripped
09 [e926912a|816873f5] (0+6/6) Accurately ripped
10 [f3fbd083|4e1a3300] (0+6/6) Accurately ripped
11 [ad0f90cd|c7417b51] (0+6/6) Accurately ripped
12 [98275180|faade8aa] (0+6/6) Accurately ripped
13 [814dfad3|0baafdfa] (0+6/6) Accurately ripped
14 [42ec3df1|5954989d] (0+6/6) Accurately ripped
15 [68121e8e|cdde8418] (0+5/5) Accurately ripped
16 [38574a63|45351a8e] (0+5/5) Accurately ripped
17 [c7c47bda|b63745cb] (0+6/6) Accurately ripped
18 [d21c2285|f673c245] (0+6/6) Accurately ripped
19 [c5437078|b0f53941] (0+6/6) Accurately ripped
20 [231e9da0|545fb22a] (0+6/6) Accurately ripped

Track Peak [ CRC32 ] [W/O NULL] [ LOG ]
– 88,6 [FB1F93A7] [B1DD5563]
01 82,9 [10A6B817] [82309CEF] CRC32
02 86,9 [1149A941] [80F47F91] CRC32
03 86,9 [99473C3F] [4B7FB780] CRC32
04 82,4 [7CFA8297] [BFCBE142] CRC32
05 86,8 [20B347D7] [43C0B049] CRC32
06 81,3 [4C3C66BC] [E0BD825E] CRC32
07 82,3 [869C2C7A] [290776A4] CRC32
08 81,9 [3ED07023] [F2C1BA54] CRC32
09 83,9 [2920BFEB] [7DD23A10] CRC32
10 81,9 [0D4CE70B] [3DD4C6B8] CRC32
11 88,6 [C871A7B8] [DC276A21] CRC32
12 80,3 [AB6E0AC9] [985F95F7] CRC32
13 76,4 [2B8AF75F] [D16D9C43] CRC32
14 76,0 [FB643661] [9C84E2CE] CRC32
15 86,0 [A434B5BE] [51D8FD8D] CRC32
16 88,3 [53DBEFEC] [539C4F9E] CRC32
17 82,0 [A67D1EF9] [233B162E] CRC32
18 82,3 [660EE187] [10D8628D] CRC32
19 82,5 [390CEEB7] [79B93533] CRC32
20 82,2 [1026743D] [54BA3AA1] CRC32

MC Squared - Tantalizing Colours: The Reprise Recordings (2012)

All thanks go to ian

Download MC Squared - Tantalizing Colours: The Reprise Recordings (2012):