Subcategories

M People - Elegant Slumming (1993) {RCA/BMG Victor Japan}

Posted By: TestTickles
M People - Elegant Slumming (1993) {RCA/BMG Victor Japan}

M People - Elegant Slumming (1993) {RCA/BMG Victor Japan}
EAC Rip | FLAC with CUE and log | scans | 546 mb
MP3 CBR 320 kbps | RAR | 260 mb
Genre: soul, R&B, funk, acid jazz

Elegant Slumming is the 1993 album by M People. This Japanese pressing released by RCA/BMG Victor features four bonus cuts.

M People - Elegant Slumming (1993) {RCA/BMG Victor Japan}

01. One Night In Heaven
02. Moving On Up
03. Renaissance
04. You Just Have To Be There
05. Love Is In My Soul
06. Don't Look Any Further
07. Natural Thing
08. Little Packet
09. La Vida Loca
10. Melody Of Life
11. One Night In Heaven (Master Mix) (Bonus Track)
12. One Night In Heaven (Gloss Mix) (Bonus Track)
13. Moving On Up (Mk Movin Mix) (Bonus Track)
14. Don't Look Any Further (M People Master Edit) (Bonus Track)

Exact Audio Copy V1.3 from 2. September 2016

EAC extraction logfile from 2. November 2019, 8:34

M People / Elegant Slumming

Used drive : SlimtypeeNAU508 5 Adapter: 1 ID: 1

Read mode : Secure
Utilize accurate stream : Yes
Defeat audio cache : Yes
Make use of C2 pointers : No

Read offset correction : 6
Overread into Lead-In and Lead-Out : No
Fill up missing offset samples with silence : Yes
Delete leading and trailing silent blocks : No
Null samples used in CRC calculations : Yes
Used interface : Native Win32 interface for Win NT & 2000
Gap handling : Appended to previous track

Used output format : User Defined Encoder
Selected bitrate : 896 kBit/s
Quality : High
Add ID3 tag : No
Command line compressor : C:\Program Files (x86)\Exact Audio Copy\FLAC\FLAC.EXE
Additional command line options : -8 -V -T "ARTIST=%artist%" -T "TITLE=%title%" -T "ALBUM=%albumtitle%" -T "DATE=%year%" -T "TRACKNUMBER=%tracknr%" -T "GENRE=%genre%" -T "COMMENT=%comment%" -T "BAND=%albuminterpret%" -T "ALBUMARTIST=%albuminterpret%" -T "COMPOSER=%composer%" %haslyrics%–tag-from-file=LYRICS="%lyricsfile%"%haslyrics% -T "DISCNUMBER=%cdnumber%" -T "TOTALDISCS=%totalcds%" -T "TOTALTRACKS=%numtracks%" %hascover%–picture="%coverfile%"%hascover% %source% -o %dest%


TOC of the extracted CD

Track | Start | Length | Start sector | End sector
––––––––––––––––––––––––––––-
1 | 0:00.00 | 6:28.31 | 0 | 29130
2 | 6:28.31 | 5:30.00 | 29131 | 53880
3 | 11:58.31 | 5:21.34 | 53881 | 77989
4 | 17:19.65 | 5:26.70 | 77990 | 102509
5 | 22:46.60 | 6:16.54 | 102510 | 130763
6 | 29:03.39 | 5:28.31 | 130764 | 155394
7 | 34:31.70 | 5:06.16 | 155395 | 178360
8 | 39:38.11 | 5:19.65 | 178361 | 202350
9 | 44:58.01 | 4:32.66 | 202351 | 222816
10 | 49:30.67 | 4:45.17 | 222817 | 244208
11 | 54:16.09 | 6:29.00 | 244209 | 273383
12 | 60:45.09 | 6:20.37 | 273384 | 301920
13 | 67:05.46 | 7:30.15 | 301921 | 335685
14 | 74:35.61 | 3:27.30 | 335686 | 351240


Track 1

Filename C:\cuntfist\FLAC\M People - Elegant Slumming (1993) [FLAC] {RCA. BMG Victor Japan}\01 - One Night In Heaven.wav

Pre-gap length 0:00:02.00

Peak level 96.0 %
Extraction speed 1.7 X
Track quality 99.9 %
Test CRC 8F1F8F3F
Copy CRC 8F1F8F3F
Track not present in AccurateRip database
Copy OK

Track 2

Filename C:\cuntfist\FLAC\M People - Elegant Slumming (1993) [FLAC] {RCA. BMG Victor Japan}\02 - Moving On Up.wav

Peak level 94.9 %
Extraction speed 1.9 X
Track quality 99.9 %
Test CRC D4355B81
Copy CRC D4355B81
Track not present in AccurateRip database
Copy OK

Track 3

Filename C:\cuntfist\FLAC\M People - Elegant Slumming (1993) [FLAC] {RCA. BMG Victor Japan}\03 - Renaissance.wav

Peak level 83.7 %
Extraction speed 2.5 X
Track quality 100.0 %
Test CRC D5679E29
Copy CRC D5679E29
Track not present in AccurateRip database
Copy OK

Track 4

Filename C:\cuntfist\FLAC\M People - Elegant Slumming (1993) [FLAC] {RCA. BMG Victor Japan}\04 - You Just Have To Be There.wav

Peak level 87.8 %
Extraction speed 2.7 X
Track quality 100.0 %
Test CRC 44848B58
Copy CRC 44848B58
Track not present in AccurateRip database
Copy OK

Track 5

Filename C:\cuntfist\FLAC\M People - Elegant Slumming (1993) [FLAC] {RCA. BMG Victor Japan}\05 - Love Is In My Soul.wav

Peak level 80.9 %
Extraction speed 2.9 X
Track quality 100.0 %
Test CRC 15AEF1BE
Copy CRC 15AEF1BE
Track not present in AccurateRip database
Copy OK

Track 6

Filename C:\cuntfist\FLAC\M People - Elegant Slumming (1993) [FLAC] {RCA. BMG Victor Japan}\06 - Don't Look Any Further.wav

Peak level 75.5 %
Extraction speed 3.0 X
Track quality 100.0 %
Test CRC B69596ED
Copy CRC B69596ED
Track not present in AccurateRip database
Copy OK

Track 7

Filename C:\cuntfist\FLAC\M People - Elegant Slumming (1993) [FLAC] {RCA. BMG Victor Japan}\07 - Natural Thing.wav

Peak level 83.7 %
Extraction speed 3.1 X
Track quality 100.0 %
Test CRC 0EA67DA9
Copy CRC 0EA67DA9
Track not present in AccurateRip database
Copy OK

Track 8

Filename C:\cuntfist\FLAC\M People - Elegant Slumming (1993) [FLAC] {RCA. BMG Victor Japan}\08 - Little Packet.wav

Peak level 76.7 %
Extraction speed 3.3 X
Track quality 100.0 %
Test CRC 27DFDA4A
Copy CRC 27DFDA4A
Track not present in AccurateRip database
Copy OK

Track 9

Filename C:\cuntfist\FLAC\M People - Elegant Slumming (1993) [FLAC] {RCA. BMG Victor Japan}\09 - La Vida Loca.wav

Peak level 73.4 %
Extraction speed 2.6 X
Track quality 99.9 %
Test CRC 98209872
Copy CRC 98209872
Track not present in AccurateRip database
Copy OK

Track 10

Filename C:\cuntfist\FLAC\M People - Elegant Slumming (1993) [FLAC] {RCA. BMG Victor Japan}\10 - Melody Of Life.wav

Peak level 79.0 %
Extraction speed 3.5 X
Track quality 100.0 %
Test CRC 081D4D9D
Copy CRC 081D4D9D
Track not present in AccurateRip database
Copy OK

Track 11

Filename C:\cuntfist\FLAC\M People - Elegant Slumming (1993) [FLAC] {RCA. BMG Victor Japan}\11 - One Night In Heaven (Master Mix) (Bonus Track).wav

Peak level 90.5 %
Extraction speed 3.8 X
Track quality 100.0 %
Test CRC 90482F46
Copy CRC 90482F46
Track not present in AccurateRip database
Copy OK

Track 12

Filename C:\cuntfist\FLAC\M People - Elegant Slumming (1993) [FLAC] {RCA. BMG Victor Japan}\12 - One Night In Heaven (Gloss Mix) (Bonus Track).wav

Peak level 76.9 %
Extraction speed 3.9 X
Track quality 100.0 %
Test CRC 714EE00B
Copy CRC 714EE00B
Track not present in AccurateRip database
Copy OK

Track 13

Filename C:\cuntfist\FLAC\M People - Elegant Slumming (1993) [FLAC] {RCA. BMG Victor Japan}\13 - Moving On Up (Mk Movin Mix) (Bonus Track).wav

Peak level 83.9 %
Extraction speed 3.5 X
Track quality 99.9 %
Test CRC 513A1BDC
Copy CRC 513A1BDC
Track not present in AccurateRip database
Copy OK

Track 14

Filename C:\cuntfist\FLAC\M People - Elegant Slumming (1993) [FLAC] {RCA. BMG Victor Japan}\14 - Don't Look Any Further (M People Master Edit) (Bonus Track).wav

Peak level 75.2 %
Extraction speed 3.8 X
Track quality 100.0 %
Test CRC 416C2679
Copy CRC 416C2679
Track not present in AccurateRip database
Copy OK


None of the tracks are present in the AccurateRip database

No errors occurred

End of status report

–– CUETools DB Plugin V2.1.6

[CTDB TOCID: Z3Ag_qFEuqRqxw8wA7la.bX0Yzw-] disk not present in database
Submit result: Z3Ag_qFEuqRqxw8wA7la.bX0Yzw- has been uploaded


==== Log checksum EF9A18459459E7FBE5E6DE996DB4560F6E83AA1CC121116F7A11549ADBF3E4C6 ====


M People - Elegant Slumming (1993) {RCA/BMG Victor Japan}


Thank you to the original uploader.