Subcategories

Mac Quayle - Mr. Robot Volume 3 (OST) (2017)

Posted By: gribovar
Mac Quayle - Mr. Robot Volume 3 (OST) (2017)

Mac Quayle - Mr. Robot Volume 3 (OST) (2017)
EAC Rip | FLAC (tracks+.cue+log) - 274 MB | MP3 CBR 320 kbps (LAME 3.93) - 156 MB | Covers - 23 MB
Genre: Progressive Electronic, Ambient, Soundtrack | RAR 3% Rec. | Label: Lakeshore Records (LKS350162)

Lakeshore Records presents Mr. Robot - USA Network's Golden Globe, Emmy Award-Winning Series - Soundtrack Volume 3.
"Elliot uses programming and social engineering techniques to seek and exploit weakness in computer networks, and I use programming and sonic engineering techniques to help enhance the emotional content of each scene," said Mac Quayle. "Armed with our computers and an arsenal of software tools, we both attempt to create and discover the right combination of notes (code) and sounds (keystrokes) that help tell the story (access the network)."
"For this soundtrack, the idea was to include as much music as possible from Season 1 and organize it chronologically by episode," Quayle described. He used an almost all electronic palette for the show, adding only one organic instrument - a piano. "A signature sound in the show is created from what I call 'PaulStretch Textures': audio that has been manipulated by a time stretching program is converted into a sampler instrument making it playable on a keyboard."
Tracklist:
01. 2.0_1-s4ve-the-w0rld.act
02. 2.0_2-FuxSocy.sln
03. 2.0_3-j0urnaling.ivs
04. 2.0_4-control-1s-an-illusion.amr
05. 2.0_5-infiniteloop0finsanity.vox
06. 2.0_6-madame3xecutioner.oga
07. 2.0_7-jester-actual.dss
08. 2.0_8-confid3nce.dct
09. 2.0_9-unexpectedpresents.m4b
10. 2.0_10-masktakesover.sln
11. 2.0_11-music-b0x.mmf
12. 2.1_1-prisoner-of-paranoia.ivs
13. 2.2_1-hidinginplainsight.awb
14. 2.2_2-annihil4tion.dct
15. 2.2_3-existence.opus
16. 2.2_4-mightbe0wned.tta
17. 2.2_5-divinity.iklax
18. 2.3_1-steel-v4lley.webm
19. 2.3_2-di3with4nswers.dvf
20. 2.3_3-fuckgutinstinct.act
21. 2.3_4-midland-city.oga
22. 2.3_5-pun1shm3nt.ape
23. 2.4_1-heartworm.3gp
24. 2.4_2-m4ster-s1ave.msv

Total time: 01:06:11

Exact Audio Copy V1.3 from 2. September 2016

EAC extraction logfile from 24. December 2017, 3:54

Mac Quayle / Mr. Robot, Vol. 3 (Original Television Series Soundtrack)

Used drive : TSSTcorpCDDVDW SH-222AB Adapter: 1 ID: 1

Read mode : Secure
Utilize accurate stream : Yes
Defeat audio cache : Yes
Make use of C2 pointers : No

Read offset correction : 6
Overread into Lead-In and Lead-Out : No
Fill up missing offset samples with silence : Yes
Delete leading and trailing silent blocks : No
Null samples used in CRC calculations : Yes
Used interface : Native Win32 interface for Win NT & 2000
Gap handling : Appended to previous track

Used output format : User Defined Encoder
Selected bitrate : 1024 kBit/s
Quality : High
Add ID3 tag : No
Command line compressor : C:\Program Files (x86)\Exact Audio Copy\Codecs\FLAC\flac.exe
Additional command line options : -8 -e -p -V -T "ARTIST=%artist%" -T "TITLE=%title%" -T "ALBUM=%albumtitle%" -T "DATE=%year%" -T "TRACKNUMBER=%tracknr%" -T "GENRE=%genre%" -T "PERFORMER=%albuminterpret%" -T "COMPOSER=%composer%" %haslyrics%–tag-from-file=LYRICS="%lyricsfile%"%haslyrics% -T "ALBUMARTIST=%albumartist%" -T "DISCNUMBER=%cdnumber%" -T "TOTALDISCS=%totalcds%" -T "TOTALTRACKS=%numtracks%" -T "COMMENT=%comment%" %source% -o %dest%


TOC of the extracted CD

Track | Start | Length | Start sector | End sector
––––––––––––––––––––––––––––-
1 | 0:00.00 | 2:28.08 | 0 | 11107
2 | 2:28.08 | 2:31.69 | 11108 | 22501
3 | 5:00.02 | 1:58.30 | 22502 | 31381
4 | 6:58.32 | 2:14.00 | 31382 | 41431
5 | 9:12.32 | 3:38.74 | 41432 | 57855
6 | 12:51.31 | 4:08.32 | 57856 | 76487
7 | 16:59.63 | 2:52.65 | 76488 | 89452
8 | 19:52.53 | 2:24.18 | 89453 | 100270
9 | 22:16.71 | 2:44.48 | 100271 | 112618
10 | 25:01.44 | 3:57.31 | 112619 | 130424
11 | 28:59.00 | 1:08.67 | 130425 | 135591
12 | 30:07.67 | 2:19.57 | 135592 | 146073
13 | 32:27.49 | 2:59.15 | 146074 | 159513
14 | 35:26.64 | 2:29.71 | 159514 | 170759
15 | 37:56.60 | 3:35.56 | 170760 | 186940
16 | 41:32.41 | 2:34.13 | 186941 | 198503
17 | 44:06.54 | 5:13.54 | 198504 | 222032
18 | 49:20.33 | 2:28.57 | 222033 | 233189
19 | 51:49.15 | 2:40.54 | 233190 | 245243
20 | 54:29.69 | 1:34.23 | 245244 | 252316
21 | 56:04.17 | 4:02.72 | 252317 | 270538
22 | 60:07.14 | 1:54.48 | 270539 | 279136
23 | 62:01.62 | 2:41.24 | 279137 | 291235
24 | 64:43.11 | 1:27.59 | 291236 | 297819


Track 1

Filename C:\Mac Quayle - Mr. Robot, Vol. 3 (Original Television Series Soundtrack) (2017) [FLAC] {LKS350162}\01 - 2.0_1-s4ve-the-w0rld.act.wav

Pre-gap length 0:00:02.00

Peak level 100.0 %
Extraction speed 1.6 X
Track quality 100.0 %
Test CRC AA108B68
Copy CRC AA108B68
Track not present in AccurateRip database
Copy OK

Track 2

Filename C:\Mac Quayle - Mr. Robot, Vol. 3 (Original Television Series Soundtrack) (2017) [FLAC] {LKS350162}\02 - 2.0_2-FuxSocy.sln.wav

Peak level 100.0 %
Extraction speed 1.8 X
Track quality 100.0 %
Test CRC BAFC66A2
Copy CRC BAFC66A2
Track not present in AccurateRip database
Copy OK

Track 3

Filename C:\Mac Quayle - Mr. Robot, Vol. 3 (Original Television Series Soundtrack) (2017) [FLAC] {LKS350162}\03 - 2.0_3-j0urnaling.ivs.wav

Peak level 98.2 %
Extraction speed 1.8 X
Track quality 100.0 %
Test CRC 79125BE3
Copy CRC 79125BE3
Track not present in AccurateRip database
Copy OK

Track 4

Filename C:\Mac Quayle - Mr. Robot, Vol. 3 (Original Television Series Soundtrack) (2017) [FLAC] {LKS350162}\04 - 2.0_4-control-1s-an-illusion.amr.wav

Peak level 86.8 %
Extraction speed 1.9 X
Track quality 100.0 %
Test CRC 78F00CE9
Copy CRC 78F00CE9
Track not present in AccurateRip database
Copy OK

Track 5

Filename C:\Mac Quayle - Mr. Robot, Vol. 3 (Original Television Series Soundtrack) (2017) [FLAC] {LKS350162}\05 - 2.0_5-infiniteloop0finsanity.vox.wav

Peak level 99.5 %
Extraction speed 2.2 X
Track quality 100.0 %
Test CRC 1D477B52
Copy CRC 1D477B52
Track not present in AccurateRip database
Copy OK

Track 6

Filename C:\Mac Quayle - Mr. Robot, Vol. 3 (Original Television Series Soundtrack) (2017) [FLAC] {LKS350162}\06 - 2.0_6-madame3xecutioner.oga.wav

Peak level 97.7 %
Extraction speed 2.4 X
Track quality 100.0 %
Test CRC D811A713
Copy CRC D811A713
Track not present in AccurateRip database
Copy OK

Track 7

Filename C:\Mac Quayle - Mr. Robot, Vol. 3 (Original Television Series Soundtrack) (2017) [FLAC] {LKS350162}\07 - 2.0_7-jester-actual.dss.wav

Peak level 88.6 %
Extraction speed 2.4 X
Track quality 100.0 %
Test CRC 91472B5C
Copy CRC 91472B5C
Track not present in AccurateRip database
Copy OK

Track 8

Filename C:\Mac Quayle - Mr. Robot, Vol. 3 (Original Television Series Soundtrack) (2017) [FLAC] {LKS350162}\08 - 2.0_8-confid3nce.dct.wav

Peak level 97.6 %
Extraction speed 2.4 X
Track quality 100.0 %
Test CRC 91CBBB23
Copy CRC 91CBBB23
Track not present in AccurateRip database
Copy OK

Track 9

Filename C:\Mac Quayle - Mr. Robot, Vol. 3 (Original Television Series Soundtrack) (2017) [FLAC] {LKS350162}\09 - 2.0_9-unexpectedpresents.m4b.wav

Peak level 77.9 %
Extraction speed 2.1 X
Track quality 99.9 %
Test CRC D3A51A56
Copy CRC D3A51A56
Track not present in AccurateRip database
Copy OK

Track 10

Filename C:\Mac Quayle - Mr. Robot, Vol. 3 (Original Television Series Soundtrack) (2017) [FLAC] {LKS350162}\10 - 2.0_10-masktakesover.sln.wav

Peak level 100.0 %
Extraction speed 2.8 X
Track quality 100.0 %
Test CRC 838E7BF0
Copy CRC 838E7BF0
Track not present in AccurateRip database
Copy OK

Track 11

Filename C:\Mac Quayle - Mr. Robot, Vol. 3 (Original Television Series Soundtrack) (2017) [FLAC] {LKS350162}\11 - 2.0_11-music-b0x.mmf.wav

Peak level 53.0 %
Extraction speed 2.1 X
Track quality 100.0 %
Test CRC 9DD3D164
Copy CRC 9DD3D164
Track not present in AccurateRip database
Copy OK

Track 12

Filename C:\Mac Quayle - Mr. Robot, Vol. 3 (Original Television Series Soundtrack) (2017) [FLAC] {LKS350162}\12 - 2.1_1-prisoner-of-paranoia.ivs.wav

Peak level 99.4 %
Extraction speed 2.1 X
Track quality 99.9 %
Test CRC BBA4A48E
Copy CRC BBA4A48E
Track not present in AccurateRip database
Copy OK

Track 13

Filename C:\Mac Quayle - Mr. Robot, Vol. 3 (Original Television Series Soundtrack) (2017) [FLAC] {LKS350162}\13 - 2.2_1-hidinginplainsight.awb.wav

Peak level 97.7 %
Extraction speed 2.9 X
Track quality 100.0 %
Test CRC 050DAC8C
Copy CRC 050DAC8C
Track not present in AccurateRip database
Copy OK

Track 14

Filename C:\Mac Quayle - Mr. Robot, Vol. 3 (Original Television Series Soundtrack) (2017) [FLAC] {LKS350162}\14 - 2.2_2-annihil4tion.dct.wav

Peak level 97.7 %
Extraction speed 2.9 X
Track quality 100.0 %
Test CRC FDE6638C
Copy CRC FDE6638C
Track not present in AccurateRip database
Copy OK

Track 15

Filename C:\Mac Quayle - Mr. Robot, Vol. 3 (Original Television Series Soundtrack) (2017) [FLAC] {LKS350162}\15 - 2.2_3-existence.opus.wav

Peak level 75.0 %
Extraction speed 3.2 X
Track quality 100.0 %
Test CRC 7C492DC5
Copy CRC 7C492DC5
Track not present in AccurateRip database
Copy OK

Track 16

Filename C:\Mac Quayle - Mr. Robot, Vol. 3 (Original Television Series Soundtrack) (2017) [FLAC] {LKS350162}\16 - 2.2_4-mightbe0wned.tta.wav

Peak level 83.3 %
Extraction speed 3.0 X
Track quality 100.0 %
Test CRC 393C99C5
Copy CRC 393C99C5
Track not present in AccurateRip database
Copy OK

Track 17

Filename C:\Mac Quayle - Mr. Robot, Vol. 3 (Original Television Series Soundtrack) (2017) [FLAC] {LKS350162}\17 - 2.2_5-divinity.iklax.wav

Peak level 99.8 %
Extraction speed 3.0 X
Track quality 99.9 %
Test CRC 98E538A5
Copy CRC 98E538A5
Track not present in AccurateRip database
Copy OK

Track 18

Filename C:\Mac Quayle - Mr. Robot, Vol. 3 (Original Television Series Soundtrack) (2017) [FLAC] {LKS350162}\18 - 2.3_1-steel-v4lley.webm.wav

Peak level 100.0 %
Extraction speed 3.2 X
Track quality 100.0 %
Test CRC 0CC536F4
Copy CRC 0CC536F4
Track not present in AccurateRip database
Copy OK

Track 19

Filename C:\Mac Quayle - Mr. Robot, Vol. 3 (Original Television Series Soundtrack) (2017) [FLAC] {LKS350162}\19 - 2.3_2-di3with4nswers.dvf.wav

Peak level 98.3 %
Extraction speed 3.3 X
Track quality 100.0 %
Test CRC 512EC687
Copy CRC 512EC687
Track not present in AccurateRip database
Copy OK

Track 20

Filename C:\Mac Quayle - Mr. Robot, Vol. 3 (Original Television Series Soundtrack) (2017) [FLAC] {LKS350162}\20 - 2.3_3-fuckgutinstinct.act.wav

Peak level 82.6 %
Extraction speed 2.9 X
Track quality 100.0 %
Test CRC 8CCBD58B
Copy CRC 8CCBD58B
Track not present in AccurateRip database
Copy OK

Track 21

Filename C:\Mac Quayle - Mr. Robot, Vol. 3 (Original Television Series Soundtrack) (2017) [FLAC] {LKS350162}\21 - 2.3_4-midland-city.oga.wav

Peak level 97.7 %
Extraction speed 3.7 X
Track quality 100.0 %
Test CRC A40B6702
Copy CRC A40B6702
Track not present in AccurateRip database
Copy OK

Track 22

Filename C:\Mac Quayle - Mr. Robot, Vol. 3 (Original Television Series Soundtrack) (2017) [FLAC] {LKS350162}\22 - 2.3_5-pun1shm3nt.ape.wav

Peak level 100.0 %
Extraction speed 3.2 X
Track quality 100.0 %
Test CRC C731F84C
Copy CRC C731F84C
Track not present in AccurateRip database
Copy OK

Track 23

Filename C:\Mac Quayle - Mr. Robot, Vol. 3 (Original Television Series Soundtrack) (2017) [FLAC] {LKS350162}\23 - 2.4_1-heartworm.3gp.wav

Peak level 98.2 %
Extraction speed 2.6 X
Track quality 99.9 %
Test CRC 6875FA74
Copy CRC 6875FA74
Track not present in AccurateRip database
Copy OK

Track 24

Filename C:\Mac Quayle - Mr. Robot, Vol. 3 (Original Television Series Soundtrack) (2017) [FLAC] {LKS350162}\24 - 2.4_2-m4ster-s1ave.msv.wav

Peak level 99.1 %
Extraction speed 3.1 X
Track quality 100.0 %
Test CRC 5C23D536
Copy CRC 5C23D536
Track not present in AccurateRip database
Copy OK


None of the tracks are present in the AccurateRip database

No errors occurred

End of status report

–– CUETools DB Plugin V2.1.6

[CTDB TOCID: kb3UY5EMOKrR_4r6Q_qT2nWB8aU-] found
Submit result: kb3UY5EMOKrR_4r6Q_qT2nWB8aU- has been confirmed
Track | CTDB Status
1 | (10/10) Accurately ripped
2 | (10/10) Accurately ripped
3 | (10/10) Accurately ripped
4 | (10/10) Accurately ripped
5 | (10/10) Accurately ripped
6 | (10/10) Accurately ripped
7 | (10/10) Accurately ripped
8 | (10/10) Accurately ripped
9 | (10/10) Accurately ripped
10 | (10/10) Accurately ripped
11 | (10/10) Accurately ripped
12 | (10/10) Accurately ripped
13 | (10/10) Accurately ripped
14 | (10/10) Accurately ripped
15 | (10/10) Accurately ripped
16 | (10/10) Accurately ripped
17 | (10/10) Accurately ripped
18 | (10/10) Accurately ripped
19 | (10/10) Accurately ripped
20 | (10/10) Accurately ripped
21 | (10/10) Accurately ripped
22 | (10/10) Accurately ripped
23 | (10/10) Accurately ripped
24 | (10/10) Accurately ripped


==== Log checksum 08ADD3E4F49AF60928367EAF03D80F3E4B71A8FFF5FF69C0860D53923C9CBBD4 ====

[CUETools log; Date: 09.11.2019 16:07:58; Version: 2.1.4]
[CTDB TOCID: kb3UY5EMOKrR_4r6Q_qT2nWB8aU-] found.
Track | CTDB Status
1 | (24/24) Accurately ripped
2 | (24/24) Accurately ripped
3 | (24/24) Accurately ripped
4 | (24/24) Accurately ripped
5 | (24/24) Accurately ripped
6 | (24/24) Accurately ripped
7 | (24/24) Accurately ripped
8 | (24/24) Accurately ripped
9 | (24/24) Accurately ripped
10 | (24/24) Accurately ripped
11 | (24/24) Accurately ripped
12 | (24/24) Accurately ripped
13 | (24/24) Accurately ripped
14 | (24/24) Accurately ripped
15 | (24/24) Accurately ripped
16 | (24/24) Accurately ripped
17 | (24/24) Accurately ripped
18 | (24/24) Accurately ripped
19 | (24/24) Accurately ripped
20 | (24/24) Accurately ripped
21 | (24/24) Accurately ripped
22 | (24/24) Accurately ripped
23 | (24/24) Accurately ripped
24 | (24/24) Accurately ripped
[AccurateRip ID: 00396905-03e9199b-4c0f8218] found.
Track [ CRC | V2 ] Status
01 [b97170bb|a0a55744] (0+5/5) Accurately ripped
02 [cec82bd7|65d3091f] (0+5/5) Accurately ripped
03 [d6e80da9|3935226e] (0+5/5) Accurately ripped
04 [a556eb8c|e95e3c88] (0+5/5) Accurately ripped
05 [c3c9288c|7dff3152] (0+5/5) Accurately ripped
06 [3a368407|1598e6d5] (0+5/5) Accurately ripped
07 [7b9eaf88|9f425599] (0+5/5) Accurately ripped
08 [9145cd09|35a26424] (0+5/5) Accurately ripped
09 [326109fa|86e5812f] (0+5/5) Accurately ripped
10 [ce41e0de|96137895] (0+5/5) Accurately ripped
11 [294a4506|d5871b20] (0+5/5) Accurately ripped
12 [a40ffe0c|6319cc11] (0+5/5) Accurately ripped
13 [7282e6ff|c8100190] (0+5/5) Accurately ripped
14 [dccf814d|b6c490e8] (0+5/5) Accurately ripped
15 [7746b4ce|9753566b] (0+5/5) Accurately ripped
16 [8d1f749e|23a0744e] (0+5/5) Accurately ripped
17 [19477773|f597f3a0] (0+5/5) Accurately ripped
18 [467ae3cd|29436fdc] (0+5/5) Accurately ripped
19 [1afc33b2|5079793d] (0+5/5) Accurately ripped
20 [d602f770|75f5c459] (0+5/5) Accurately ripped
21 [d73bdb22|3024f6ba] (0+5/5) Accurately ripped
22 [b31e158c|afed3f3c] (0+5/5) Accurately ripped
23 [bd96659f|33d67737] (0+5/5) Accurately ripped
24 [ef07ab3a|7066ae01] (0+5/5) Accurately ripped

Track Peak [ CRC32 ] [W/O NULL] [ LOG ]
– 100,0 [F6DAF218] [243300BF]
01 100,0 [AA108B68] [0F7F201F] CRC32
02 100,0 [BAFC66A2] [4CDC40B9] CRC32
03 98,2 [79125BE3] [01E106F0] CRC32
04 86,8 [78F00CE9] [502E921D] CRC32
05 99,5 [1D477B52] [88C81A7C] CRC32
06 97,7 [D811A713] [C63BA9AC] CRC32
07 88,6 [91472B5C] [0A0DB9B2] CRC32
08 97,6 [91CBBB23] [7099D3B5] CRC32
09 77,9 [D3A51A56] [CEC94E46] CRC32
10 100,0 [838E7BF0] [D0ECBCCD] CRC32
11 53,0 [9DD3D164] [D82D45D8] CRC32
12 99,4 [BBA4A48E] [A7DB7CA7] CRC32
13 97,7 [050DAC8C] [21B10203] CRC32
14 97,7 [FDE6638C] [2D359FDA] CRC32
15 75,0 [7C492DC5] [75D1782E] CRC32
16 83,3 [393C99C5] [BBB5C764] CRC32
17 99,8 [98E538A5] [E563DDF2] CRC32
18 100,0 [0CC536F4] [30112918] CRC32
19 98,3 [512EC687] [C14D7F28] CRC32
20 82,6 [8CCBD58B] [DDF915B0] CRC32
21 97,7 [A40B6702] [5D0E10DF] CRC32
22 100,0 [C731F84C] [7CFD6C7E] CRC32
23 98,2 [6875FA74] [7AA6222A] CRC32
24 99,1 [5C23D536] [83A6F623] CRC32

Thanks to the original releaser

See also:
Mac Quayle - Mr. Robot Volume 1 (OST) (2016)
Mac Quayle - Mr. Robot Volume 2 (OST) (2016)