Subcategories

Mac Quayle - Mr. Robot Volume 4 (OST) (2017)

Posted By: gribovar
Mac Quayle - Mr. Robot Volume 4 (OST) (2017)

Mac Quayle - Mr. Robot Volume 4 (OST) (2017)
EAC Rip | FLAC (tracks+.cue+log) - 275 MB | MP3 CBR 320 kbps (LAME 3.93) - 145 MB | Covers - 25 MB
Genre: Progressive Electronic, Ambient, Soundtrack | RAR 3% Rec. | Label: Lakeshore Records (LKS350182)

Lakeshore Records presents Mr. Robot - USA Network's Golden Globe, Emmy Award-Winning Series - Soundtrack Volume 4.
"Elliot uses programming and social engineering techniques to seek and exploit weakness in computer networks, and I use programming and sonic engineering techniques to help enhance the emotional content of each scene," said Mac Quayle. "Armed with our computers and an arsenal of software tools, we both attempt to create and discover the right combination of notes (code) and sounds (keystrokes) that help tell the story (access the network)."
"For this soundtrack, the idea was to include as much music as possible from Season 1 and organize it chronologically by episode," Quayle described. He used an almost all electronic palette for the show, adding only one organic instrument - a piano. "A signature sound in the show is created from what I call 'PaulStretch Textures': audio that has been manipulated by a time stretching program is converted into a sampler instrument making it playable on a keyboard."
Tracklist:
01. 2.5_1-h4ndshake.oga
02. 2.5_2-being-gods.opus
03. 2.5_3-nginx.ivs
04. 2.5_4-youaremy4nswer.msv
05. 2.5_5-rev0lution.act
06. 2.6_1-h1dden-pr0cess.dvf
07. 2.7_1-init_5.fve
08. 2.7_2-this1sourstop.dss
09. 2.8_1-audit0ry-space.tta
10. 2.8_2-ph4se.vox
11. 2.9_1-hardcashfading.mmf
12. 2.9_2-hang1nthere.dct
13. 2.9_3-woman0ftime.m4b
14. 2.9_4-silentobserver.webm
15. 2.9_5-pyth0n.sln
16. 2.9_6-discr33tplace.amr
17. 2.9_7-youPOS.ape
18. 2.9_8-blueprints.3gp
19. 2.9_9-takeb4ckcontrol.act

Total time: 01:01:52

Exact Audio Copy V1.3 from 2. September 2016

EAC extraction logfile from 24. December 2017, 2:19

Mac Quayle / Mr. Robot, Vol. 4 (Original Television Series Soundtrack)

Used drive : TSSTcorpCDDVDW SH-222AB Adapter: 1 ID: 1

Read mode : Secure
Utilize accurate stream : Yes
Defeat audio cache : Yes
Make use of C2 pointers : No

Read offset correction : 6
Overread into Lead-In and Lead-Out : No
Fill up missing offset samples with silence : Yes
Delete leading and trailing silent blocks : No
Null samples used in CRC calculations : Yes
Used interface : Native Win32 interface for Win NT & 2000
Gap handling : Appended to previous track

Used output format : User Defined Encoder
Selected bitrate : 1024 kBit/s
Quality : High
Add ID3 tag : No
Command line compressor : C:\Program Files (x86)\Exact Audio Copy\Codecs\FLAC\flac.exe
Additional command line options : -8 -e -p -V -T "ARTIST=%artist%" -T "TITLE=%title%" -T "ALBUM=%albumtitle%" -T "DATE=%year%" -T "TRACKNUMBER=%tracknr%" -T "GENRE=%genre%" -T "PERFORMER=%albuminterpret%" -T "COMPOSER=%composer%" %haslyrics%–tag-from-file=LYRICS="%lyricsfile%"%haslyrics% -T "ALBUMARTIST=%albumartist%" -T "DISCNUMBER=%cdnumber%" -T "TOTALDISCS=%totalcds%" -T "TOTALTRACKS=%numtracks%" -T "COMMENT=%comment%" %source% -o %dest%


TOC of the extracted CD

Track | Start | Length | Start sector | End sector
––––––––––––––––––––––––––––-
1 | 0:00.00 | 1:37.65 | 0 | 7339
2 | 1:37.65 | 2:31.01 | 7340 | 18665
3 | 4:08.66 | 1:51.22 | 18666 | 27012
4 | 6:00.13 | 4:52.34 | 27013 | 48946
5 | 10:52.47 | 2:32.43 | 48947 | 60389
6 | 13:25.15 | 2:07.27 | 60390 | 69941
7 | 15:32.42 | 1:37.37 | 69942 | 77253
8 | 17:10.04 | 2:15.15 | 77254 | 87393
9 | 19:25.19 | 4:16.61 | 87394 | 106654
10 | 23:42.05 | 4:43.63 | 106655 | 127942
11 | 28:25.68 | 2:31.07 | 127943 | 139274
12 | 30:57.00 | 4:16.43 | 139275 | 158517
13 | 35:13.43 | 4:10.32 | 158518 | 177299
14 | 39:24.00 | 4:51.35 | 177300 | 199159
15 | 44:15.35 | 3:24.65 | 199160 | 214524
16 | 47:40.25 | 2:42.09 | 214525 | 226683
17 | 50:22.34 | 2:17.28 | 226684 | 236986
18 | 52:39.62 | 5:23.38 | 236987 | 261249
19 | 58:03.25 | 3:48.43 | 261250 | 278392


Track 1

Filename C:\Mac Quayle - Mr. Robot, Vol. 4 (Original Television Series Soundtrack) (2017) [FLAC] {LKS350182}\01 - 2.5_1-h4ndshake.oga.wav

Pre-gap length 0:00:02.00

Peak level 100.0 %
Extraction speed 2.1 X
Track quality 100.0 %
Test CRC 2574DC28
Copy CRC 2574DC28
Track not present in AccurateRip database
Copy OK

Track 2

Filename C:\Mac Quayle - Mr. Robot, Vol. 4 (Original Television Series Soundtrack) (2017) [FLAC] {LKS350182}\02 - 2.5_2-being-gods.opus.wav

Peak level 97.7 %
Extraction speed 2.5 X
Track quality 100.0 %
Test CRC 15250370
Copy CRC 15250370
Track not present in AccurateRip database
Copy OK

Track 3

Filename C:\Mac Quayle - Mr. Robot, Vol. 4 (Original Television Series Soundtrack) (2017) [FLAC] {LKS350182}\03 - 2.5_3-nginx.ivs.wav

Peak level 97.8 %
Extraction speed 2.4 X
Track quality 100.0 %
Test CRC 640AE66D
Copy CRC 640AE66D
Track not present in AccurateRip database
Copy OK

Track 4

Filename C:\Mac Quayle - Mr. Robot, Vol. 4 (Original Television Series Soundtrack) (2017) [FLAC] {LKS350182}\04 - 2.5_4-youaremy4nswer.msv.wav

Peak level 100.0 %
Extraction speed 2.2 X
Track quality 100.0 %
Test CRC 345F888C
Copy CRC 345F888C
Track not present in AccurateRip database
Copy OK

Track 5

Filename C:\Mac Quayle - Mr. Robot, Vol. 4 (Original Television Series Soundtrack) (2017) [FLAC] {LKS350182}\05 - 2.5_5-rev0lution.act.wav

Peak level 97.7 %
Extraction speed 3.0 X
Track quality 100.0 %
Test CRC F1296544
Copy CRC F1296544
Track not present in AccurateRip database
Copy OK

Track 6

Filename C:\Mac Quayle - Mr. Robot, Vol. 4 (Original Television Series Soundtrack) (2017) [FLAC] {LKS350182}\06 - 2.6_1-h1dden-pr0cess.dvf.wav

Peak level 98.6 %
Extraction speed 3.0 X
Track quality 100.0 %
Test CRC 408766E0
Copy CRC 408766E0
Track not present in AccurateRip database
Copy OK

Track 7

Filename C:\Mac Quayle - Mr. Robot, Vol. 4 (Original Television Series Soundtrack) (2017) [FLAC] {LKS350182}\07 - 2.7_1-init_5.fve.wav

Peak level 97.7 %
Extraction speed 2.9 X
Track quality 100.0 %
Test CRC 9D29FA3F
Copy CRC 9D29FA3F
Track not present in AccurateRip database
Copy OK

Track 8

Filename C:\Mac Quayle - Mr. Robot, Vol. 4 (Original Television Series Soundtrack) (2017) [FLAC] {LKS350182}\08 - 2.7_2-this1sourstop.dss.wav

Peak level 97.8 %
Extraction speed 2.1 X
Track quality 100.0 %
Test CRC 53CF5DA9
Copy CRC 53CF5DA9
Track not present in AccurateRip database
Copy OK

Track 9

Filename C:\Mac Quayle - Mr. Robot, Vol. 4 (Original Television Series Soundtrack) (2017) [FLAC] {LKS350182}\09 - 2.8_1-audit0ry-space.tta.wav

Pre-gap length 0:00:01.98

Peak level 98.4 %
Extraction speed 3.9 X
Track quality 100.0 %
Test CRC A2C0ED1A
Copy CRC A2C0ED1A
Track not present in AccurateRip database
Copy OK

Track 10

Filename C:\Mac Quayle - Mr. Robot, Vol. 4 (Original Television Series Soundtrack) (2017) [FLAC] {LKS350182}\10 - 2.8_2-ph4se.vox.wav

Peak level 98.7 %
Extraction speed 3.3 X
Track quality 99.9 %
Test CRC 866E9364
Copy CRC 866E9364
Track not present in AccurateRip database
Copy OK

Track 11

Filename C:\Mac Quayle - Mr. Robot, Vol. 4 (Original Television Series Soundtrack) (2017) [FLAC] {LKS350182}\11 - 2.9_1-hardcashfading.mmf.wav

Peak level 97.7 %
Extraction speed 3.8 X
Track quality 100.0 %
Test CRC 5D5DECF0
Copy CRC 5D5DECF0
Track not present in AccurateRip database
Copy OK

Track 12

Filename C:\Mac Quayle - Mr. Robot, Vol. 4 (Original Television Series Soundtrack) (2017) [FLAC] {LKS350182}\12 - 2.9_2-hang1nthere.dct.wav

Peak level 97.7 %
Extraction speed 4.4 X
Track quality 100.0 %
Test CRC 498E2864
Copy CRC 498E2864
Track not present in AccurateRip database
Copy OK

Track 13

Filename C:\Mac Quayle - Mr. Robot, Vol. 4 (Original Television Series Soundtrack) (2017) [FLAC] {LKS350182}\13 - 2.9_3-woman0ftime.m4b.wav

Peak level 90.6 %
Extraction speed 4.6 X
Track quality 100.0 %
Test CRC 5F7E3071
Copy CRC 5F7E3071
Track not present in AccurateRip database
Copy OK

Track 14

Filename C:\Mac Quayle - Mr. Robot, Vol. 4 (Original Television Series Soundtrack) (2017) [FLAC] {LKS350182}\14 - 2.9_4-silentobserver.webm.wav

Peak level 97.7 %
Extraction speed 3.9 X
Track quality 99.9 %
Test CRC D421751E
Copy CRC D421751E
Track not present in AccurateRip database
Copy OK

Track 15

Filename C:\Mac Quayle - Mr. Robot, Vol. 4 (Original Television Series Soundtrack) (2017) [FLAC] {LKS350182}\15 - 2.9_5-pyth0n.sln.wav

Pre-gap length 0:00:01.97

Peak level 100.0 %
Extraction speed 3.5 X
Track quality 99.9 %
Test CRC 8CC3DF87
Copy CRC 8CC3DF87
Track not present in AccurateRip database
Copy OK

Track 16

Filename C:\Mac Quayle - Mr. Robot, Vol. 4 (Original Television Series Soundtrack) (2017) [FLAC] {LKS350182}\16 - 2.9_6-discr33tplace.amr.wav

Pre-gap length 0:00:02.85

Peak level 97.8 %
Extraction speed 4.7 X
Track quality 100.0 %
Test CRC 5A05838E
Copy CRC 5A05838E
Track not present in AccurateRip database
Copy OK

Track 17

Filename C:\Mac Quayle - Mr. Robot, Vol. 4 (Original Television Series Soundtrack) (2017) [FLAC] {LKS350182}\17 - 2.9_7-youPOS.ape.wav

Peak level 100.0 %
Extraction speed 4.6 X
Track quality 100.0 %
Test CRC 358EAD1A
Copy CRC 358EAD1A
Track not present in AccurateRip database
Copy OK

Track 18

Filename C:\Mac Quayle - Mr. Robot, Vol. 4 (Original Television Series Soundtrack) (2017) [FLAC] {LKS350182}\18 - 2.9_8-blueprints.3gp.wav

Peak level 100.0 %
Extraction speed 5.4 X
Track quality 100.0 %
Test CRC CE470DA5
Copy CRC CE470DA5
Track not present in AccurateRip database
Copy OK

Track 19

Filename C:\Mac Quayle - Mr. Robot, Vol. 4 (Original Television Series Soundtrack) (2017) [FLAC] {LKS350182}\19 - 2.9_9-takeb4ckcontrol.act.wav

Pre-gap length 0:00:02.42

Peak level 100.0 %
Extraction speed 5.3 X
Track quality 100.0 %
Test CRC ED2ED3D5
Copy CRC ED2ED3D5
Track not present in AccurateRip database
Copy OK


None of the tracks are present in the AccurateRip database

No errors occurred

End of status report

–– CUETools DB Plugin V2.1.6

[CTDB TOCID: cqfitaZPirFsmIw.65TuXjC03vM-] found
Submit result: cqfitaZPirFsmIw.65TuXjC03vM- has been confirmed
Track | CTDB Status
1 | (3/3) Accurately ripped
2 | (3/3) Accurately ripped
3 | (3/3) Accurately ripped
4 | (3/3) Accurately ripped
5 | (3/3) Accurately ripped
6 | (3/3) Accurately ripped
7 | (3/3) Accurately ripped
8 | (3/3) Accurately ripped
9 | (3/3) Accurately ripped
10 | (3/3) Accurately ripped
11 | (3/3) Accurately ripped
12 | (3/3) Accurately ripped
13 | (3/3) Accurately ripped
14 | (3/3) Accurately ripped
15 | (3/3) Accurately ripped
16 | (3/3) Accurately ripped
17 | (3/3) Accurately ripped
18 | (3/3) Accurately ripped
19 | (3/3) Accurately ripped


==== Log checksum CFE6119E9FFF0BCB3B4690DAA94D4CCF47EE6493CE137F2C1437B44E4144DF22 ====

[CUETools log; Date: 13.11.2019 2:08:41; Version: 2.1.4]
[CTDB TOCID: cqfitaZPirFsmIw.65TuXjC03vM-] found.
Track | CTDB Status
1 | (16/16) Accurately ripped
2 | (16/16) Accurately ripped
3 | (16/16) Accurately ripped
4 | (16/16) Accurately ripped
5 | (16/16) Accurately ripped
6 | (16/16) Accurately ripped
7 | (16/16) Accurately ripped
8 | (16/16) Accurately ripped
9 | (16/16) Accurately ripped
10 | (16/16) Accurately ripped
11 | (16/16) Accurately ripped
12 | (16/16) Accurately ripped
13 | (16/16) Accurately ripped
14 | (16/16) Accurately ripped
15 | (16/16) Accurately ripped
16 | (16/16) Accurately ripped
17 | (16/16) Accurately ripped
18 | (16/16) Accurately ripped
19 | (16/16) Accurately ripped
[AccurateRip ID: 002681f4-022c039b-030e7f13] found.
Track [ CRC | V2 ] Status
01 [7a631668|1aac94c0] (0+5/5) Accurately ripped
02 [6428c2d6|9e7f2fca] (0+5/5) Accurately ripped
03 [6d3c8575|6cd302a2] (0+5/5) Accurately ripped
04 [151735b3|1c73f066] (0+5/5) Accurately ripped
05 [956090c6|038f72b7] (0+5/5) Accurately ripped
06 [422f22dc|867d875c] (0+5/5) Accurately ripped
07 [d826e93c|2dede487] (0+5/5) Accurately ripped
08 [58c87f8b|5ea65f54] (0+5/5) Accurately ripped
09 [d6e9f4b7|e42a61c4] (0+5/5) Accurately ripped
10 [51b8e9c9|41d6ddcb] (0+5/5) Accurately ripped
11 [7af5b037|5c7ef92e] (0+5/5) Accurately ripped
12 [2bc7a6f7|5f9d186b] (0+5/5) Accurately ripped
13 [29e15c22|3686a739] (0+5/5) Accurately ripped
14 [154314ec|fd0d42de] (0+5/5) Accurately ripped
15 [c2ac87aa|a1d2ce3c] (0+5/5) Accurately ripped
16 [5de9dda0|b91834a6] (0+5/5) Accurately ripped
17 [c5c427c9|a8b55a6e] (0+5/5) Accurately ripped
18 [6df22a82|1b335e0b] (0+5/5) Accurately ripped
19 [a0a48072|0c4c963b] (0+5/5) Accurately ripped

Track Peak [ CRC32 ] [W/O NULL] [ LOG ]
– 100,0 [61BBEAEE] [C9931674]
01 100,0 [2574DC28] [0F92F0E9] CRC32
02 97,7 [15250370] [C7789548] CRC32
03 97,8 [640AE66D] [D85EE8D7] CRC32
04 100,0 [345F888C] [AB65099B] CRC32
05 97,7 [F1296544] [D3EFEEB3] CRC32
06 98,6 [408766E0] [2E15A4DF] CRC32
07 97,7 [9D29FA3F] [36B9B9DF] CRC32
08 97,8 [53CF5DA9] [8400DE02] CRC32
09 98,4 [A2C0ED1A] [9321F9F7] CRC32
10 98,7 [866E9364] [5CA9A897] CRC32
11 97,7 [5D5DECF0] [C5441F62] CRC32
12 97,7 [498E2864] [B42EF1FE] CRC32
13 90,6 [5F7E3071] [7024CE1A] CRC32
14 97,7 [D421751E] [425E28C7] CRC32
15 100,0 [8CC3DF87] [1CAFFF5F] CRC32
16 97,8 [5A05838E] [7FAC8902] CRC32
17 100,0 [358EAD1A] [6BB12D2C] CRC32
18 100,0 [CE470DA5] [9E7CBD03] CRC32
19 100,0 [ED2ED3D5] [AA5B9176] CRC32

Thanks to the original releaser

See also:
Mac Quayle - Mr. Robot Volume 1 (OST) (2016)
Mac Quayle - Mr. Robot Volume 2 (OST) (2016)
Mac Quayle - Mr. Robot Volume 3 (OST) (2017)