Subcategories

Made In Sweden - Snakes In A Hole (1969)

Posted By: v3122
Made In Sweden - Snakes In A Hole (1969)

Made In Sweden - Snakes In A Hole (1969)
EAC | Flac(Image) + Cue + Log & MP3 CBR 320Kbps
2004 | Hugo-Montes Production, HMP CD-021 | ~ 215 or 76 Mb | Scans(jpg) -> 4.36 Mb
Jazz-Rock, Psychedelic Rock | Unofficial Release

Originally a trio, MADE IN SWEDEN was founded by guitarist George WADENIUS, bassist Bo HAGGSTROM and drummer Tommy BORGUDD. This first incarnation of the band released 3 studio albums and a live album, and won Grammis for Best Band in 1969 and 1970. The trio would split up later on and over time the original members would join a band called SOLAR PLEXUS. Their reformation in the mid 70's made them something of a supergroup with musicians from Finland joining the band; namely Pekka POHJOLA from WIGWAM and drummer Vesa AALTONEN from TASAVALLAN PRESIDENTTI. This new line-up featured only WADENIUS from the original trio, and other additions to the band were Wlodek GULGOWSKI on keyboards and singer Tommy KORBERG who was also involved with SOLAR PLEXUS. This second incarnation would release one more album in 1976.

~ progarchives
Made In Sweden - Snakes In A Hole (1969)

Made In Sweden - Snakes In A Hole (1969):

Made In Sweden - Snakes In A Hole (1969)

Tracklist:

01. Snakes In A Hole (G.Wadenius, T.Borgudd)
02. Lay Lady Lay (Bob Dylan)
03. Discotheque People (G.Wadenius)
04. Give Me Whisky (B.Haggstrom, G.Wadenius, R.Wallis, T.Borgudd)
05. Kristallen Den Grymma (G.Wadenius)
06. Little Cloud (G. Wadenius, R.Wallis)
07. Big Cloud (B.Haggstrom, G.Wadenius, T.Borgudd)

Musicians:

Georg Wadenius - Guitar, Piano, Vocals
Bo Haggstrom - Bass
Tommy Borgudd - Drums

Svend Asmussen - Violin on tracks 1,2


Exact Audio Copy V1.1 from 23. June 2015

EAC extraction logfile from 1. December 2017, 15:28

Made In Sweden / Snakes In A Hole

Used drive : TSSTcorpCDDVDW SH-224DB Adapter: 1 ID: 0

Read mode : Secure
Utilize accurate stream : Yes
Defeat audio cache : Yes
Make use of C2 pointers : No

Read offset correction : 6
Overread into Lead-In and Lead-Out : No
Fill up missing offset samples with silence : Yes
Delete leading and trailing silent blocks : No
Null samples used in CRC calculations : Yes
Used interface : Native Win32 interface for Win NT & 2000

Used output format : User Defined Encoder
Selected bitrate : 1024 kBit/s
Quality : High
Add ID3 tag : No
Command line compressor : C:\Program Files (x86)\Exact Audio Copy\win64\flac.exe
Additional command line options : -8 -V -T "ARTIST=%artist%" -T "TITLE=%title%" -T "ALBUM=%albumtitle%" -T "DATE=%year%" -T "TRACKNUMBER=%tracknr%" -T "GENRE=%genre%" -T "COMMENT=%comment%" %source% -o %dest%


TOC of the extracted CD

Track | Start | Length | Start sector | End sector
––––––––––––––––––––––––––––-
1 | 0:00.00 | 4:38.45 | 0 | 20894
2 | 4:38.45 | 4:44.07 | 20895 | 42201
3 | 9:22.52 | 6:08.60 | 42202 | 69861
4 | 15:31.37 | 4:23.37 | 69862 | 89623
5 | 19:54.74 | 4:50.40 | 89624 | 111413
6 | 24:45.39 | 3:41.16 | 111414 | 128004
7 | 28:26.55 | 2:59.71 | 128005 | 141500


Range status and errors

Selected range

Filename F:\Sket4er\Made In Sweden – Snakes In A Hole (1969) 2004\Made In Sweden - Snakes In A Hole.wav

Peak level 100.0 %
Extraction speed 2.5 X
Range quality 100.0 %
Test CRC AECEBDF2
Copy CRC AECEBDF2
Copy OK

No errors occurred


AccurateRip summary

Track 1 accurately ripped (confidence 2) [8CD7096F] (AR v2)
Track 2 accurately ripped (confidence 2) [DA3A0595] (AR v2)
Track 3 accurately ripped (confidence 2) [02CEEDFB] (AR v2)
Track 4 accurately ripped (confidence 2) [5E554EBB] (AR v2)
Track 5 accurately ripped (confidence 2) [3F1FE1E8] (AR v2)
Track 6 accurately ripped (confidence 2) [CFC942C2] (AR v2)
Track 7 accurately ripped (confidence 2) [6B9D526C] (AR v2)

All tracks accurately ripped

End of status report

–– CUETools DB Plugin V2.1.6

[CTDB TOCID: A6BM6XeYNFatKVwpuHoFUI4CCYA-] disk not present in database
Submit result: A6BM6XeYNFatKVwpuHoFUI4CCYA- has been uploaded


==== Log checksum 62FC6916101ACEE86B0124B037BC0F9E134EB83137DA104979A209979E4A79FE ====


[CUETools log; Date: 03.12.2017 19:22:31; Version: 2.1.5]
[AccurateRip ID: 0009356f-0036d12c-5f075e07] found.
Track [ CRC | V2 ] Status
01 [9adacdf4|8cd7096f] (0+2/2) Accurately ripped
02 [41e981a7|da3a0595] (0+2/2) Accurately ripped
03 [b403cdb0|02ceedfb] (0+2/2) Accurately ripped
04 [063bac33|5e554ebb] (0+2/2) Accurately ripped
05 [e689dc0a|3f1fe1e8] (0+2/2) Accurately ripped
06 [4a9812f4|cfc942c2] (0+2/2) Accurately ripped
07 [36760df0|6b9d526c] (0+2/2) Accurately ripped

Track Peak [ CRC32 ] [W/O NULL] [ LOG ]
– 100,0 [AECEBDF2] [9C17BBC4] CRC32
01 100,0 [ED337A82] [5D72AFE2]
02 99,9 [C8AC4A0B] [4C310EE1]
03 100,0 [F64CC172] [2BFACF3C]
04 100,0 [BEAFABC8] [B3825DD9]
05 100,0 [4078A8B7] [6CCC2112]
06 100,0 [2F36EA47] [EB44B50A]
07 100,0 [835FBF45] [EE1CE362]


Made In Sweden - Snakes In A Hole (1969)

All thanks go to the original releaser

Download Made In Sweden - Snakes In A Hole (1969):