Tags
Language
Tags

Madness - Absolutely (1980)

Posted By: popsakov
Madness - Absolutely (1980)

Madness - Absolutely (1980)
EAC Rip | FLAC (Img) + Cue + Log ~ 318 Mb | MP3 CBR320 ~ 131 Mb
Агдд Scans | 00:39:23 | RAR 5% Recovery
Ska, Pop Rock, New Wave, Post Punk | Virgin Records #CDOVD 134 / 0777 7 86917 23

A classic example of a second album delivering more of the same, at least on the surface, Absolutely does benefit from the kinetic energy of being recorded quickly in the aftermath of Madness’ immediate success with One Step Beyond. Absolutely does motor ahead on breakneck ska rhythms, but it never quite feels as raw as its predecessor, and that hint of gloss serves the three big hit singles very well: the schoolyard nostalgia of “Baggy Trousers” has a bit of a sepia-toned lilt with this extra dose or production, the terrific “Embarrassment” slides by so smoothly it’s possible to not realize what an expertly crafted piece of pop it is, and “The Return of the Los Palmas 7” has a nice element of swinging ‘60s lounge cinema. As it happens, these hits are the moments that are a tangible progression from the nutty sound of One Step Beyond, with the rest of the record riding that rollicking beat – sometimes dipping into silly straight-ahead boogie (“Solid Gone”), sometimes slowing down (“Close Escape”) – but usually delivering more of the same in a highly appealing fashion. Madness perform with such high energy and such a big grin, it’s hard not to get swept up in the good times even if, after the party dies down, the memory of Absolutely just winds up seeming a shade familiar.

~ Stephen Thomas Erlewine, All Music

***************

Madness - Absolutely (1980)

Madness - Absolutely (1980)

Track List:

01. Baggy Trousers [2:47]
02. Embarrassment [3:11]
03. E.R.N.I.E. [2:09]
04. Close Escape [3:33]
05. Not Home Today [2:44]
06. On the Beat Pete [3:05]
07. Solid Gone [2:20]
08. Take It or Leave It [3:28]
09. Shadow of Fear [1:59]
10. Disappear [2:59]
11. Overdone [3:45]
12. In the Rain [2:44]
13. You Said [2:35]
14. Return of the Los Palmas 7 [2:05]

Personnel:
Graham McPherson (Suggs) – lead vocals; percussion
Mike Barson (Monsieur Barso) – piano; organ; vibraphone; marimba; harmonica
Chris Foreman (Chrissy Boy) – guitars; sitar; slide guitar
Lee Thompson (Kix) – tenor; baritone saxophones
Daniel Woodgate (Woody) – drums; fire extinguisher
Mark Bedford (Bedders) – bass guitars
Cathal Smyth (Chas Smash) – backing vocals; trumpet; lead vocals on "Solid Gone"

Exact Audio Copy V1.3 from 2. September 2016

Отчёт EAC об извлечении, выполненном 8. апреля 2017, 14:40

Madness / Absolutely

Дисковод: _NEC DVD_RW ND-3550A Adapter: 1 ID: 3

Режим чтения : Достоверность
Использование точного потока : Да
Отключение кэша аудио : Да
Использование указателей C2 : Нет

Коррекция смещения при чтении : 48
Способность читать области Lead-in и Lead-out : Нет
Заполнение пропущенных сэмплов тишиной : Да
Удаление блоков с тишиной в начале и конце : Нет
При вычислениях CRC использовались нулевые сэмплы : Да
Интерфейс : Встроенный Win32-интерфейс для Win NT/2000

Выходной формат : Пользовательский кодировщик
Выбранный битрейт : 1024 kBit/s
Качество : Высокий
Добавление ID3-тега : Нет
Утилита сжатия : C:\Program Files (x86)\Exact Audio Copy\FLAC\FLAC.EXE
Дополнительные параметры : -6 -V -T "ARTIST=%artist%" -T "TITLE=%title%" -T "ALBUM=%albumtitle%" -T "DATE=%year%" -T "TRACKNUMBER=%tracknr%" -T "GENRE=%genre%" -T "COMMENT=%comment%" -T "BAND=%albuminterpret%" -T "ALBUMARTIST=%albuminterpret%" -T "COMPOSER=%composer%" %haslyrics%–tag-from-file=LYRICS="%lyricsfile%"%haslyrics% -T "DISCNUMBER=%cdnumber%" -T "TOTALDISCS=%totalcds%" -T "TOTALTRACKS=%numtracks%" %hascover%–picture="%coverfile%"%hascover% %source% -o %dest%


TOC извлечённого CD

Трек | Старт | Длительность | Начальный сектор | Конечный сектор
––––––––––––––––––––––––––––––––––-
1 | 0:00.32 | 2:46.60 | 32 | 12541
2 | 2:47.17 | 3:10.68 | 12542 | 26859
3 | 5:58.10 | 2:09.35 | 26860 | 36569
4 | 8:07.45 | 3:32.42 | 36570 | 52511
5 | 11:40.12 | 2:43.60 | 52512 | 64796
6 | 14:23.72 | 3:04.55 | 64797 | 78651
7 | 17:28.52 | 2:19.60 | 78652 | 89136
8 | 19:48.37 | 3:27.53 | 89137 | 104714
9 | 23:16.15 | 1:59.32 | 104715 | 113671
10 | 25:15.47 | 2:58.53 | 113672 | 127074
11 | 28:14.25 | 3:45.27 | 127075 | 143976
12 | 31:59.52 | 2:43.70 | 143977 | 156271
13 | 34:43.47 | 2:34.70 | 156272 | 167891
14 | 37:18.42 | 2:04.65 | 167892 | 177256


Характеристики диапазона извлечения и сообщения об ошибках

Выбранный диапазон

Имя файла C:\Users\Desktop\Madness - Absolutely (1980)\Madness - Absolutely.wav

Пиковый уровень 98.5 %
Скорость извлечения 6.5 X
Качество диапазона 100.0 %
CRC теста EB0E3866
CRC копии EB0E3866
Копирование… OK

Ошибок не произошло


AccurateRip: сводка

Трек 1 : извлечено точно (доверие 8) [1E13F7E9] (AR v2)
Трек 2 : извлечено точно (доверие 8) [1D3CC7DC] (AR v2)
Трек 3 : извлечено точно (доверие 8) [6B6D556F] (AR v2)
Трек 4 : извлечено точно (доверие 8) [91879E5B] (AR v2)
Трек 5 : извлечено точно (доверие 8) [847E9C1A] (AR v2)
Трек 6 : извлечено точно (доверие 8) [3B54EBBF] (AR v2)
Трек 7 : извлечено точно (доверие 8) [37AF72C7] (AR v2)
Трек 8 : извлечено точно (доверие 8) [C430C08F] (AR v2)
Трек 9 : извлечено точно (доверие 8) [99942351] (AR v2)
Трек 10 : извлечено точно (доверие 8) [BAC605B1] (AR v2)
Трек 11 : извлечено точно (доверие 8) [A0FFB3ED] (AR v2)
Трек 12 : извлечено точно (доверие 8) [EA5F2839] (AR v2)
Трек 13 : извлечено точно (доверие 8) [EB9DD96B] (AR v2)
Трек 14 : извлечено точно (доверие 8) [F78BC215] (AR v2)

Все треки извлечены точно

Конец отчёта

–– CUETools DB Plugin V2.1.6

[CTDB TOCID: 025ondjKT6sgm5jNwknKSBdfdcs-] found
Submit result: 025ondjKT6sgm5jNwknKSBdfdcs- has been confirmed
Track | CTDB Status
1 | (24/24) Accurately ripped
2 | (24/24) Accurately ripped
3 | (24/24) Accurately ripped
4 | (24/24) Accurately ripped
5 | (24/24) Accurately ripped
6 | (24/24) Accurately ripped
7 | (24/24) Accurately ripped
8 | (24/24) Accurately ripped
9 | (24/24) Accurately ripped
10 | (24/24) Accurately ripped
11 | (24/24) Accurately ripped
12 | (24/24) Accurately ripped
13 | (24/24) Accurately ripped
14 | (24/24) Accurately ripped


==== Контрольная сумма отчёта 63B8C3500FD5FA8A38C3A251638645204CF2E809AE8602552DA1D7A538157CDB ====

[CUETools log; Date: 11.04.2017 15:35:27; Version: 2.1.5]
Pregap length 00:00:32.
[CTDB TOCID: 025ondjKT6sgm5jNwknKSBdfdcs-] found.
Track | CTDB Status
1 | (25/25) Accurately ripped
2 | (25/25) Accurately ripped
3 | (25/25) Accurately ripped
4 | (25/25) Accurately ripped
5 | (25/25) Accurately ripped
6 | (25/25) Accurately ripped
7 | (25/25) Accurately ripped
8 | (25/25) Accurately ripped
9 | (25/25) Accurately ripped
10 | (25/25) Accurately ripped
11 | (25/25) Accurately ripped
12 | (25/25) Accurately ripped
13 | (25/25) Accurately ripped
14 | (25/25) Accurately ripped
[AccurateRip ID: 0014a11a-00dbeb11-ba093b0e] found.
Track [ CRC | V2 ] Status
01 [7f787dc9|1e13f7e9] (10+08/44) Accurately ripped
02 [fdc8c654|1d3cc7dc] (11+08/45) Accurately ripped
03 [c8be4c78|6b6d556f] (10+08/43) Accurately ripped
04 [9d79e1ee|91879e5b] (10+08/44) Accurately ripped
05 [8d58665c|847e9c1a] (10+08/44) Accurately ripped
06 [b9ce94ab|3b54ebbf] (10+08/44) Accurately ripped
07 [8e681c4b|37af72c7] (10+08/44) Accurately ripped
08 [752ec62a|c430c08f] (10+08/44) Accurately ripped
09 [026c489f|99942351] (10+08/44) Accurately ripped
10 [47e23906|bac605b1] (10+08/44) Accurately ripped
11 [28f4f003|a0ffb3ed] (10+08/44) Accurately ripped
12 [74157245|ea5f2839] (10+08/44) Accurately ripped
13 [9eed18fb|eb9dd96b] (09+08/43) Accurately ripped
14 [c7af45a8|f78bc215] (10+08/44) Accurately ripped
Offsetted by -974:
01 [f2e86d5a] (10/44) Accurately ripped
02 [18a20868] (10/45) Accurately ripped
03 [1b466f94] (09/43) Accurately ripped
04 [4fd3ba4c] (10/44) Accurately ripped
05 [21c3fc56] (10/44) Accurately ripped
06 [6041c76d] (10/44) Accurately ripped
07 [999c47bd] (10/44) Accurately ripped
08 [7d9dda8d] (10/44) Accurately ripped
09 [84d94ca5] (10/44) Accurately ripped
10 [e5e7ce2d] (10/44) Accurately ripped
11 [a4b8e9de] (10/44) Accurately ripped
12 [73eee3e4] (10/44) Accurately ripped
13 [3ce35ffc] (10/43) Accurately ripped
14 [eaeb634c] (10/44) Accurately ripped
Offsetted by 264:
01 [3e6c871d] (02/44) Accurately ripped
02 [2b3b450f] (02/45) Accurately ripped
03 [2b24b2fc] (02/43) Accurately ripped
04 [1f74c11e] (02/44) Accurately ripped
05 [1f13b7e3] (02/44) Accurately ripped
06 [73b8582e] (02/44) Accurately ripped
07 [e00a0f70] (02/44) Accurately ripped
08 [bab38733] (02/44) Accurately ripped
09 [9c20c779] (02/44) Accurately ripped
10 [57e8656e] (02/44) Accurately ripped
11 [e2a07b96] (02/44) Accurately ripped
12 [3cf81bca] (02/44) Accurately ripped
13 [e3e17551] (02/43) Accurately ripped
14 [54ca1b51] (02/44) Accurately ripped
Offsetted by -47:
01 [a7ce6cd3] (00/44) No match (V2 was not tested)
02 [9b235e4c] (00/45) No match (V2 was not tested)
03 [8a2712eb] (00/43) No match (V2 was not tested)
04 [5f14dab1] (00/44) No match (V2 was not tested)
05 [2202673b] (00/44) No match (V2 was not tested)
06 [55fa39d4] (00/44) No match (V2 was not tested)
07 [d63b9fc1] (00/44) No match (V2 was not tested)
08 [123714de] (00/44) No match (V2 was not tested)
09 [318a9560] (00/44) No match (V2 was not tested)
10 [68ebc372] (00/44) No match (V2 was not tested)
11 [12ead5da] (00/44) No match (V2 was not tested)
12 [09eb4eb3] (00/44) No match (V2 was not tested)
13 [d6424f5b] (00/43) No match (V2 was not tested)
14 [649413b8] (00/44) No match (V2 was not tested)

Track Peak [ CRC32 ] [W/O NULL] [ LOG ]
– 98,5 [EB0E3866] [5FE216A2] CRC32
01 94,8 [0108B63E] [19EEE77C]
02 95,5 [67F30386] [B0D899D4]
03 95,1 [83B9B9CA] [523C46E4]
04 89,1 [40A7C6C7] [AF4AF962]
05 94,2 [8DBF196D] [0E188826]
06 95,9 [1F48DAA8] [2CC2A3B1]
07 98,5 [C7B897E0] [CCDEF89C]
08 97,7 [B0F25DE7] [436600B7]
09 89,3 [F377FD3E] [EB752A45]
10 90,6 [4851A29E] [680D9BEF]
11 94,4 [409C32F6] [A3D8BC23]
12 86,9 [CFFB1023] [5D593F6B]
13 93,3 [3A9E74CE] [BD089D80]
14 83,2 [6DF9B339] [441363A0]

Madness - Absolutely (1980)


All thanks go to the original ripper(s) …

>>> Madness in my Blog <<<

DOWNLOAD: