Subcategories

Madonna - Erotica (Explicit) (1992)

Posted By: v3122
Madonna - Erotica (Explicit) (1992)

Madonna - Erotica (Explicit) (1992)
EAC | Flac(Image) + Cue + Log & MP3 CBR 320Kbps
Maverick/Sire, 9 45031-2 | ~ 526 or 178 Mb | Scans(png) -> 421 Mb
Pop / Electronic / Dance

Erotica is the fifth studio album by American singer and songwriter Madonna. It was released on October 20, 1992, by the Maverick and Warner Bros. Records. The album was released simultaneously with Madonna's first book publication, Sex, a coffee table book containing explicit photographs featuring the singer. It marked Madonna's first release under her own multimedia entertainment company, Maverick. Erotica is a concept album about sex and romance; she incorporated an alter ego named Mistress Dita, inspired by actress Dita Parlo. Some songs also take on a more confessional tone, influenced by the loss of Madonna's two close friends to AIDS.

Madonna recorded the album in New York City with Shep Pettibone and André Betts while she was working on other projects. Pettibone sent her a tape with three songs when she was in Chicago, and shortly after they started the album's production in his apartment. During the sessions, they had problems during sequencing, and, as a result, Pettibone kept trying to move development as fast as possible as he did not want Madonna to lose interest in the music. According to him, Madonna's compositions were serious and intense, directing the creative direction of the songs into a deeply personal territory. The album's production was chronicled by Pettibone in an article called "Erotica Diaries", in Madonna's Icon magazine.

Erotica received generally favorable reviews from music critics, who regarded it as one of Madonna's most adventurous albums and praised her comments on taboos and AIDS. Commercially, the album was less successful than Madonna's previous records. It peaked at number two on the Billboard 200, becoming her first studio album not to top the chart since her debut. Internationally, it topped the charts in Australia and France, while peaking inside the top five in many other countries, such as Canada, Germany, Japan, New Zealand and the United Kingdom. Erotica was certified double-platinum by the Recording Industry Association of America (RIAA) and has sold more than six million copies worldwide.

Six singles were released from the album, with the title track and "Deeper and Deeper" becoming top-ten hits on the Billboard Hot 100. The album was supported by Madonna's fourth concert tour, The Girlie Show World Tour, which visited cities in Europe, North America, Latin America, Asia and Australia in 1993. Overlooked due to the controversy surrounding her coffee table book Sex, Erotica has been considered as one of the most underrated albums of Madonna's career. The album was later listed as one of "The 100 Best Albums of the 1990s" by Slant Magazine…

~ wiki
Madonna - Erotica (Explicit) (1992)


Madonna - Erotica (Explicit) (1992):

Madonna - Erotica (Explicit) (1992)

Tracklist:

01. Erotica [0:05:18.43]
02. Fever [0:05:00.67]
03. Bye Bye Baby [0:03:56.20]
04. Deeper And Deeper [0:05:33.35]
05. Where Life Begins [0:05:57.63]
06. Bad Girl [0:05:23.25]
07. Waiting [0:05:46.55]
08. Thief Of Hearts [0:04:51.27]
09. Words [0:05:55.63]
10. Rain [0:05:24.55]
11. Why's It So Hard [0:05:23.35]
12. In This Life [0:06:23.05]
13. Did You Do It? [0:04:54.12]
14. Secret Garden [0:05:32.20]

Exact Audio Copy V1.3 from 2. September 2016

EAC extraction logfile from 23. December 2016, 2:34

Madonna / Erotica (Explicit)

Used drive : PLEXTOR DVDR PX-810SA Adapter: 1 ID: 0

Read mode : Secure
Utilize accurate stream : Yes
Defeat audio cache : Yes
Make use of C2 pointers : No

Read offset correction : 48
Overread into Lead-In and Lead-Out : No
Fill up missing offset samples with silence : Yes
Delete leading and trailing silent blocks : No
Null samples used in CRC calculations : Yes
Used interface : Installed external ASPI interface

Used output format : User Defined Encoder
Selected bitrate : 1024 kBit/s
Quality : High
Add ID3 tag : No
Command line compressor : C:\Program Files (x86)\Exact Audio Copy\Flac\flac.exe
Additional command line options : -8 -V -T "Date=%year%" -T "Genre=%genre%" -T "COMMENT=ripped by bvstudio®" %source%


TOC of the extracted CD

Track | Start | Length | Start sector | End sector
––––––––––––––––––––––––––––-
1 | 0:00.32 | 5:18.43 | 32 | 23924
2 | 5:19.00 | 5:00.67 | 23925 | 46491
3 | 10:19.67 | 3:56.20 | 46492 | 64211
4 | 14:16.12 | 5:33.35 | 64212 | 89221
5 | 19:49.47 | 5:57.63 | 89222 | 116059
6 | 25:47.35 | 5:23.25 | 116060 | 140309
7 | 31:10.60 | 5:46.55 | 140310 | 166314
8 | 36:57.40 | 4:51.27 | 166315 | 188166
9 | 41:48.67 | 5:55.63 | 188167 | 214854
10 | 47:44.55 | 5:24.55 | 214855 | 239209
11 | 53:09.35 | 5:23.35 | 239210 | 263469
12 | 58:32.70 | 6:23.05 | 263470 | 292199
13 | 64:56.00 | 4:54.12 | 292200 | 314261
14 | 69:50.12 | 5:32.20 | 314262 | 339181


Range status and errors

Selected range

Filename F:\Madonna - Discography\1992 - Erotica (1992 - Maverick Recording Company • Sire Records Company - US - 9 45031-2)\Madonna - Erotica (Explicit).wav

Peak level 99.7 %
Extraction speed 7.9 X
Range quality 100.0 %
Test CRC EFA2604A
Copy CRC EFA2604A
Copy OK

No errors occurred


AccurateRip summary

Track 1 accurately ripped (confidence 4) [63702F90] (AR v2)
Track 2 accurately ripped (confidence 4) [F0DD9B16] (AR v2)
Track 3 accurately ripped (confidence 4) [259C3B34] (AR v2)
Track 4 accurately ripped (confidence 4) [05B74170] (AR v2)
Track 5 accurately ripped (confidence 4) [2381399F] (AR v2)
Track 6 accurately ripped (confidence 4) [6FD807F9] (AR v2)
Track 7 accurately ripped (confidence 4) [A5E1505F] (AR v2)
Track 8 accurately ripped (confidence 4) [31088CDF] (AR v2)
Track 9 accurately ripped (confidence 4) [6466A539] (AR v2)
Track 10 accurately ripped (confidence 4) [23D1E753] (AR v2)
Track 11 accurately ripped (confidence 4) [A1D4EB9C] (AR v2)
Track 12 accurately ripped (confidence 4) [135F6728] (AR v2)
Track 13 accurately ripped (confidence 4) [53F343C2] (AR v2)
Track 14 accurately ripped (confidence 4) [2D5E83C4] (AR v2)

All tracks accurately ripped

End of status report

–– CUETools DB Plugin V2.1.6

[CTDB TOCID: ZSm3.YwHJJZlGXxvWuY1cJQhkTc-] found
Submit result: ZSm3.YwHJJZlGXxvWuY1cJQhkTc- has been confirmed
Track | CTDB Status
1 | (21/21) Accurately ripped
2 | (21/21) Accurately ripped
3 | (21/21) Accurately ripped
4 | (21/21) Accurately ripped
5 | (21/21) Accurately ripped
6 | (21/21) Accurately ripped
7 | (21/21) Accurately ripped
8 | (21/21) Accurately ripped
9 | (21/21) Accurately ripped
10 | (21/21) Accurately ripped
11 | (21/21) Accurately ripped
12 | (20/21) Accurately ripped
13 | (20/21) Accurately ripped
14 | (21/21) Accurately ripped


==== Log checksum DA343B43E1B3F2FB128E6493A2395807C8B58C2E2BE3CE8C92ECC06B2775F47A ====

foobar2000 1.2.9 / Dynamic Range Meter 1.1.1
log date: 2017-01-19 00:07:20

––––––––––––––––––––––––––––––––––––––––
Analyzed: Madonna / Erotica (Explicit)
––––––––––––––––––––––––––––––––––––––––

DR Peak RMS Duration Track
––––––––––––––––––––––––––––––––––––––––
DR9 -0.03 dB -10.25 dB 5:19 01-Erotica
DR10 -0.03 dB -11.14 dB 5:01 02-Fever
DR9 -0.02 dB -10.39 dB 3:56 03-Bye Bye Baby
DR8 -0.03 dB -9.55 dB 5:33 04-Deeper And Deeper
DR11 -0.03 dB -11.85 dB 5:58 05-Where Life Begins
DR10 -0.03 dB -12.42 dB 5:23 06-Bad Girl
DR9 -0.03 dB -10.30 dB 5:47 07-Waiting
DR9 -0.03 dB -9.86 dB 4:51 08-Thief Of Hearts
DR9 -0.03 dB -10.70 dB 5:56 09-Words
DR8 -0.03 dB -10.44 dB 5:25 10-Rain
DR8 -0.03 dB -8.63 dB 5:23 11-Why's It So Hard
DR10 -0.03 dB -11.63 dB 6:23 12-In This Life
DR10 -0.03 dB -11.93 dB 4:54 13-Did You Do It?
DR10 -0.03 dB -11.41 dB 5:32 14-Secret Garden
––––––––––––––––––––––––––––––––––––––––

Number of tracks: 14
Official DR value: DR9

Samplerate: 44100 Hz
Channels: 2
Bits per sample: 16
Bitrate: 947 kbps
Codec: FLAC

[CUETools log; Date: 19.01.2017 0:03:00; Version: 2.1.4]
Pregap length 00:00:32.
[CTDB TOCID: ZSm3.YwHJJZlGXxvWuY1cJQhkTc-] found.
Track | CTDB Status
1 | (24/25) Accurately ripped
2 | (25/25) Accurately ripped
3 | (25/25) Accurately ripped
4 | (25/25) Accurately ripped
5 | (25/25) Accurately ripped
6 | (25/25) Accurately ripped
7 | (25/25) Accurately ripped
8 | (25/25) Accurately ripped
9 | (25/25) Accurately ripped
10 | (25/25) Accurately ripped
11 | (25/25) Accurately ripped
12 | (24/25) Accurately ripped
13 | (24/25) Accurately ripped
14 | (25/25) Accurately ripped
[AccurateRip ID: 00261d7a-01993f0f-ca11aa0e] found.
Track [ CRC | V2 ] Status
01 [e924b282|63702f90] (06+04/48) Accurately ripped
02 [71ca9d29|f0dd9b16] (06+04/49) Accurately ripped
03 [d3dedff2|259c3b34] (06+04/49) Accurately ripped
04 [c7ce720d|05b74170] (05+04/49) Accurately ripped
05 [c05ad477|2381399f] (06+04/50) Accurately ripped
06 [4d3916bb|6fd807f9] (06+04/50) Accurately ripped
07 [055bca52|a5e1505f] (06+04/49) Accurately ripped
08 [607cee20|31088cdf] (06+04/50) Accurately ripped
09 [8b51994a|6466a539] (05+04/48) Accurately ripped
10 [e45cade5|23d1e753] (05+04/45) Accurately ripped
11 [e6488f26|a1d4eb9c] (06+04/48) Accurately ripped
12 [969dbe0c|135f6728] (06+04/47) Accurately ripped
13 [642b76b5|53f343c2] (06+04/43) Accurately ripped
14 [56524fe9|2d5e83c4] (06+04/44) Accurately ripped
Offsetted by 899:
01 [99365148] (11/48) Accurately ripped
02 [5da7f0a3] (12/49) Accurately ripped
03 [5dfc66ab] (12/49) Accurately ripped
04 [1c7a1856] (12/49) Accurately ripped
05 [d54d4223] (13/50) Accurately ripped
06 [845790bd] (12/50) Accurately ripped
07 [15512d1e] (12/49) Accurately ripped
08 [22c692d3] (12/50) Accurately ripped
09 [c041c142] (12/48) Accurately ripped
10 [f324efaa] (12/45) Accurately ripped
11 [aabcd46b] (12/48) Accurately ripped
12 [9327b58d] (12/47) Accurately ripped
13 [9be283e5] (10/43) Accurately ripped
14 [64e6eaf6] (09/44) Accurately ripped
Offsetted by 1169:
01 [7587ece4] (05/48) Accurately ripped
02 [a64c4706] (05/49) Accurately ripped
03 [2e659292] (05/49) Accurately ripped
04 [636c0925] (05/49) Accurately ripped
05 [3464cc65] (05/50) Accurately ripped
06 [31bde678] (05/50) Accurately ripped
07 [a7f0f90e] (05/49) Accurately ripped
08 [0035076b] (05/50) Accurately ripped
09 [aeb6254e] (05/48) Accurately ripped
10 [d6520e75] (05/45) Accurately ripped
11 [b307889c] (04/48) Accurately ripped
12 [c9e21522] (05/47) Accurately ripped
13 [5f367977] (04/43) Accurately ripped
14 [d1c03f13] (04/44) Accurately ripped
Offsetted by 755:
01 [8a1bdc28] (00/48) No match (V2 was not tested)
02 [696c7c7f] (00/49) No match (V2 was not tested)
03 [3401b4e3] (00/49) No match (V2 was not tested)
04 [1edd2513] (00/49) No match (V2 was not tested)
05 [c38a7e31] (00/50) No match (V2 was not tested)
06 [fe34f27d] (00/50) No match (V2 was not tested)
07 [d6fae44c] (00/49) No match (V2 was not tested)
08 [7605e8ac] (00/50) No match (V2 was not tested)
09 [288ac96c] (00/48) No match (V2 was not tested)
10 [67adb830] (00/45) No match (V2 was not tested)
11 [eda20a19] (00/48) No match (V2 was not tested)
12 [e3c06b3e] (00/47) No match (V2 was not tested)
13 [66218abe] (00/43) No match (V2 was not tested)
14 [27298e3c] (00/44) No match (V2 was not tested)

Track Peak [ CRC32 ] [W/O NULL] [ LOG ]
– 99,7 [EFA2604A] [AC650416] CRC32
01 99,6 [DB057B0A] [81E9ADB4]
02 99,6 [20706899] [D2A01ADB]
03 99,7 [6C992110] [5486F5AF]
04 99,6 [15D50C23] [D0E494B6]
05 99,6 [8D5B27A0] [B8B4A2B0]
06 99,6 [7753CEB5] [828B4FA1]
07 99,6 [3B00E522] [D3C5A622]
08 99,6 [CA0D6069] [AE82F57C]
09 99,6 [67D236A0] [6CBC7930]
10 99,6 [AC09E59A] [4B8765FA]
11 99,6 [BAB3C744] [A9E6B043]
12 99,6 [29852E30] [09300262]
13 99,6 [B5D15FCC] [93053198]
14 99,6 [929CF570] [7E9519D6]

Madonna - Erotica (Explicit) (1992)

All thanks go to bvstudio

Madonna in my Blog

Download Madonna - Erotica (Explicit) (1992):