Tags
Language
Tags

Madonna - True Blue (1986) {2005, Japanese Reissue, Remastered}

Posted By: popsakov
Madonna - True Blue (1986) {2005, Japanese Reissue, Remastered}

Madonna - True Blue (1986) {2005, Japanese Reissue, Remastered}
EAC Rip | FLAC (Img) + Cue + Log ~ 408 Mb | MP3 CBR320 ~ 127 Mb
Full Scans ~ 54 Mb | 00:52:34 | RAR 5% Recovery
Dance-Pop, Pop | Warner Music Lapan Inc. #WPCR-75121

True Blue is the album where Madonna truly became Madonna the Superstar – the endlessly ambitious, fearlessly provocative entertainer who knew how to outrage, spark debates, get good reviews – and make good music while she's at it. To complain that True Blue is calculated is to not get Madonna – that's a large part of what she does, and she is exceptional at it, but she also makes fine music. What's brilliant about True Blue is that she does both here, using the music to hook in critics just as she's baiting a mass audience with such masterstrokes as "Papa Don't Preach," where she defiantly states she's keeping her baby. Her real trick here, however, is transcending her status as a dance-pop diva by consciously recalling classic girl group pop ("True Blue," "Jimmy Jimmy") to snag the critics, while deepening the dance grooves ("Open Your Heart," "Where's the Party"), touching on Latin rhythms ("La Isla Bonita"), making a plea for world peace ("Love Makes the World Go Round"), and delivering a tremendous ballad that rewrites the rules of adult contemporary crossover ("Live to Tell"). It's even harder to have the entire album play as an organic, cohesive work. Certainly, there's some calculation behind the entire thing, but what matters is the end result, one of the great dance-pop albums, a record that demonstrates Madonna's true skills as a songwriter, record-maker, provocateur, and entertainer through its wide reach, accomplishment, and sheer sense of fun.

~ Stephen Thomas Erlewine, All Music

***************

Madonna - True Blue (1986) {2005, Japanese Reissue, Remastered}


Track List:

01. Papa Don't Preach [4:29]
02. Open Your Heart [4:14]
03. White Heat [4:40]
04. Live To Tell [5:53]
05. Where's The Party [4:21]
06. True Blue [4:18]
07. La Isla Bonita [4:03]
08. Jimmy Jimmy [3:56]
09. Love Makes The World Go Round [4:36]
10. True Blue (The Color Mix) [6:39]
11. La Isla Bonita (Extended Remix) [5:25]

Exact Audio Copy V0.99 prebeta 4 from 23. January 2008

EAC extraction logfile from 26. October 2008, 15:01

MADONNA / True Blue (Remastered 2001 - Japan)

Used drive : PIONEER DVD-RW DVR-110D Adapter: 0 ID: 0

Read mode : Secure
Utilize accurate stream : Yes
Defeat audio cache : Yes
Make use of C2 pointers : No

Read offset correction : 48
Overread into Lead-In and Lead-Out : No
Fill up missing offset samples with silence : Yes
Delete leading and trailing silent blocks : No
Null samples used in CRC calculations : Yes
Used interface : Installed external ASPI interface

Used output format : Internal WAV Routines
Sample format : 44.100 Hz; 16 Bit; Stereo


TOC of the extracted CD

Track | Start | Length | Start sector | End sector
––––––––––––––––––––––––––––-
1 | 0:00.00 | 4:29.08 | 0 | 20182
2 | 4:29.08 | 4:13.42 | 20183 | 39199
3 | 8:42.50 | 4:40.05 | 39200 | 60204
4 | 13:22.55 | 5:52.53 | 60205 | 86657
5 | 19:15.33 | 4:21.10 | 86658 | 106242
6 | 23:36.43 | 4:18.37 | 106243 | 125629
7 | 27:55.05 | 4:02.58 | 125630 | 143837
8 | 31:57.63 | 3:55.55 | 143838 | 161517
9 | 35:53.43 | 4:35.67 | 161518 | 182209
10 | 40:29.35 | 6:39.18 | 182210 | 212152
11 | 47:08.53 | 5:25.37 | 212153 | 236564


Range status and errors

Selected range

Filename J:\M\MADONNA\Albums\1986 _ True Blue (Remastered 2001 - Japan)\MADONNA _ 1986 _ True Blue (Remastered 2001 - Japan).wav

Peak level 100.0 %
Range quality 100.0 %
Test CRC 2C96EE24
Copy CRC 2C96EE24
Copy OK

No errors occurred


AccurateRip summary

Track 1 not present in database
Track 2 not present in database
Track 3 not present in database
Track 4 not present in database
Track 5 not present in database
Track 6 not present in database
Track 7 not present in database
Track 8 not present in database
Track 9 not present in database
Track 10 not present in database
Track 11 not present in database

None of the tracks are present in the AccurateRip database

End of status report

[CUETools log; Date: 17.02.2020 12:02:16; Version: 2.1.6]
[CTDB TOCID: mC2XsUVkWrHMshzrKDRLMeKPjzg-] found.
Track | CTDB Status
1 | (35/35) Accurately ripped
2 | (35/35) Accurately ripped
3 | (35/35) Accurately ripped
4 | (35/35) Accurately ripped
5 | (35/35) Accurately ripped
6 | (35/35) Accurately ripped
7 | (35/35) Accurately ripped
8 | (35/35) Accurately ripped
9 | (35/35) Accurately ripped
10 | (35/35) Accurately ripped
11 | (35/35) Accurately ripped
[AccurateRip ID: 0014f8c3-00b64f62-8c0c520b] found.
Track [ CRC | V2 ] Status
01 [39e8fc5a|0efd1880] (00+12/12) Accurately ripped
02 [e42a0b30|0be59899] (00+12/12) Accurately ripped
03 [d65c6620|5bbf81f8] (00+12/12) Accurately ripped
04 [ea88a2de|1f63adcc] (00+12/12) Accurately ripped
05 [8b0e3d8f|78941c42] (00+12/12) Accurately ripped
06 [528be26d|c5f3538e] (00+12/12) Accurately ripped
07 [bc75a01c|59444ae8] (00+12/12) Accurately ripped
08 [31abfb7c|c44fb87b] (00+12/12) Accurately ripped
09 [e7ef4ed6|96241aad] (00+12/12) Accurately ripped
10 [388df0d9|4f1d1791] (00+12/12) Accurately ripped
11 [6e6a909c|2611a40e] (00+12/12) Accurately ripped

Track Peak [ CRC32 ] [W/O NULL] [ LOG ]
– 100,0 [2C96EE24] [6B01604A] CRC32
01 100,0 [304CC80A] [2A0951BB]
02 100,0 [FD6BF2D3] [52605457]
03 100,0 [56893322] [0DFE5E0F]
04 100,0 [B69D8605] [95C2DE1A]
05 100,0 [D8FA26A7] [754C8482]
06 100,0 [68FC4ED2] [5D0071C0]
07 100,0 [8BF97569] [A067726D]
08 100,0 [E26FF8EF] [FF13489B]
09 100,0 [F1105B4A] [D6B0447C]
10 100,0 [F72AA665] [FD257C84]
11 100,0 [09C942D0] [C37EEEC8]

Madonna - True Blue (1986) {2005, Japanese Reissue, Remastered}


All thanks go to nakts

>>> Madonna in my Blog <<<

DOWNLOAD: