Tags
Language
Tags

Magazine - Maybe It's Right To Be Nervous Now (2000)

Posted By: Rtax
Magazine - Maybe It's Right To Be Nervous Now (2000)

Magazine - Maybe It's Right To Be Nervous Now (2000)
EAC Rip | FLAC (tracks, cue, log, scans) - 1.3 GB | MP3 CBR 320 kbps - 535 MB
2:53:35 | New Wave, Rock, Art Rock | Label: Virgin Records

Magazine's three-disc box set is a mess. Breaking the group's history down to two eras spread across the first two-thirds of the box and adding a fantastic and well-needed third disc dedicated solely to Peel Sessions, it's yet another multi-disc package that half-pleases both fan and neophyte. Only four of the 45 tracks come directly from the band's four studio LPs. Oddly enough, seven-tenths of the decent live album Play is strewn across the first two discs.

Why include the majority of a live album that caters to diehards, therefore leaving out the better studio versions? Eight B-sides are scattered throughout, most of which were previously available on Scree. Four "alternative mixes" add further frustration, including a sub-standard (demo?) "Shot by Both Sides." That could be the biggest gripe. Not including the definitive version of "Shot by Both Sides," which is to post-punk what "Anarchy in the U.K." is to punk, would be similar to leaving "Love Is the Drug" off of a Roxy Music collection. So aside from the Peel Sessions, a fan is getting hardly anything new. The neophyte would be better off picking up the single-disc Where the Power Is, which draws from this and obviously costs less. The Peel Sessions disc is the real meat. Four sessions yield 15 thoroughly exciting songs. Everything is delivered with excellence, although Howard Devoto might have wanted to impair keyboardist Dave Formula's busy hands. Some versions might be preferable to their album counterparts, including the furious take on the Devoto/Pete Shelley-penned "Boredom." Despite the numerous complications with this box, the high rating is deserved. Many would argue that it could have been done better, but the material is undoubtedly strong. The package itself is a treat, containing the results of Devoto's personal archive ransacking.

Tracklist
Disc: 1 - Real Life/Secondhand Daylight Era
1. Shot By Both Sides (Alternate Recording)
2. My Mind Ain't So Open
3. Touch And Go
4. Goldfinger
5. Give Me Everything
6. I Love You You Big Dummy
7. My Tulpa
8. Definitive Gaze (Live)
9. Parade (Live)
10. The Light Pours Out Of Me (Alternative Version)
11. Rhythm Of Cruelty
12. Tv Baby
13. Back To Nature
14. Permafrost (Live)
15. Feed The Enemy (Live)

Disc: 2 - The Correct Use Of Soap/Magic, Murder And The Weather Era
1. A Song From Under The Floorboards (Live)
2. Twenty Years Ago
3. Thank You (Falettinme Be Mice Elf Agin) (Live)
4. The Book
5. Upside Down
6. Sweetheart Contract
7. Shot By Both Sides (Live)
8. Because You're Frightened (Live)
9. I Want To Burn Again
10. Model Worker (Live)
11. Vigilance (Alternative Mix)
12. In The Dark
13. The Operative
14. Come Alive
15. Thinking Flame (The Garden)

Disc: 3 - The Peel Sessions
1. Touch And Go (Peel Session)
2. The Light Pours Out Of Me (Peel Session)
3. Real Life (Definitive Gaze) (Peel Session)
4. My Mind Ain't So Open (Peel Session)
5. Give Me Everything (Peel Session)
6. Burst (Peel Session)
7. I Love You You Big Dummy (Peel Session)
8. Boredom (Peel Session)
9. Tv Baby (Peel Session)
10. Thank You For Letting Me Be Myself Again (Peel Ses
11. Permafrost (Peel Session)
12. A Song From Under The Floorboards (Peel Session)
13. Twenty Years Ago (Peel Session)
14. Look What Fear's Done To My Body (Because You're F
15. Model Worker (Peel Session)
Exact Audio Copy V1.3 from 2. September 2016

EAC extraction logfile from 4. April 2017, 22:52

Magazine / Real Life-Secondhand Daylight Era

Used drive : TSSTcorpCDDVDW SH-224DB Adapter: 1 ID: 0

Read mode : Secure
Utilize accurate stream : Yes
Defeat audio cache : Yes
Make use of C2 pointers : No

Read offset correction : 6
Overread into Lead-In and Lead-Out : No
Fill up missing offset samples with silence : Yes
Delete leading and trailing silent blocks : No
Null samples used in CRC calculations : Yes
Used interface : Native Win32 interface for Win NT & 2000
Gap handling : Appended to previous track

Used output format : User Defined Encoder
Selected bitrate : 1024 kBit/s
Quality : High
Add ID3 tag : No
Command line compressor : C:\Program Files (x86)\Exact Audio Copy\Flac\flac.exe
Additional command line options : -8 -V -T "ARTIST=%artist%" -T "TITLE=%title%" -T "ALBUM=%albumtitle%" -T "DATE=%year%" -T "TRACKNUMBER=%tracknr%" -T "TOTALTRACKS=%numtracks%" -T "GENRE=%genre%" -T "ALBUMARTIST=%albumartist%" -T "ALBUM ARTIST=%albumartist%" -T "COMMENT=EAC Secure Mode, Test & Copy, AccurateRip, FLAC -8" %source%


TOC of the extracted CD

Track | Start | Length | Start sector | End sector
––––––––––––––––––––––––––––-
1 | 0:00.00 | 3:59.25 | 0 | 17949
2 | 3:59.25 | 2:15.27 | 17950 | 28101
3 | 6:14.52 | 2:57.28 | 28102 | 41404
4 | 9:12.05 | 3:49.20 | 41405 | 58599
5 | 13:01.25 | 4:22.57 | 58600 | 78306
6 | 17:24.07 | 3:54.33 | 78307 | 95889
7 | 21:18.40 | 4:50.15 | 95890 | 117654
8 | 26:08.55 | 3:39.20 | 117655 | 134099
9 | 29:48.00 | 6:08.62 | 134100 | 161761
10 | 35:56.62 | 3:26.05 | 161762 | 177216
11 | 39:22.67 | 3:03.65 | 177217 | 191006
12 | 42:26.57 | 3:46.05 | 191007 | 207961
13 | 46:12.62 | 6:41.30 | 207962 | 238066
14 | 52:54.17 | 4:57.15 | 238067 | 260356
15 | 57:51.32 | 3:54.48 | 260357 | 277954


Track 1

Filename C:\Users\biafr_000\Music\Magazine - Magazine (Maybe It's Right To Be Nervous Now) (2000) [FLAC]\CD1\01 - Shot By Both Sides (Alt).wav

Pre-gap length 0:00:02.00

Peak level 100.0 %
Extraction speed 1.9 X
Track quality 100.0 %
Test CRC 354804E1
Copy CRC 354804E1
Accurately ripped (confidence 8) [D2B92845] (AR v2)
Copy OK

Track 2

Filename C:\Users\biafr_000\Music\Magazine - Magazine (Maybe It's Right To Be Nervous Now) (2000) [FLAC]\CD1\02 - My Mind Ain't So Open.wav

Peak level 100.0 %
Extraction speed 1.9 X
Track quality 100.0 %
Test CRC DC33F4BA
Copy CRC DC33F4BA
Accurately ripped (confidence 7) [5FD8ECB6] (AR v2)
Copy OK

Track 3

Filename C:\Users\biafr_000\Music\Magazine - Magazine (Maybe It's Right To Be Nervous Now) (2000) [FLAC]\CD1\03 - Touch And Go.wav

Peak level 100.0 %
Extraction speed 2.1 X
Track quality 100.0 %
Test CRC E54626D9
Copy CRC E54626D9
Accurately ripped (confidence 7) [3B184258] (AR v2)
Copy OK

Track 4

Filename C:\Users\biafr_000\Music\Magazine - Magazine (Maybe It's Right To Be Nervous Now) (2000) [FLAC]\CD1\04 - Goldfinger.wav

Peak level 100.0 %
Extraction speed 2.3 X
Track quality 100.0 %
Test CRC C08D8E8B
Copy CRC C08D8E8B
Accurately ripped (confidence 7) [66FD6553] (AR v2)
Copy OK

Track 5

Filename C:\Users\biafr_000\Music\Magazine - Magazine (Maybe It's Right To Be Nervous Now) (2000) [FLAC]\CD1\05 - Give Me Everything.wav

Peak level 100.0 %
Extraction speed 2.5 X
Track quality 100.0 %
Test CRC 7BBDCBE2
Copy CRC 7BBDCBE2
Accurately ripped (confidence 9) [7EF7D73D] (AR v2)
Copy OK

Track 6

Filename C:\Users\biafr_000\Music\Magazine - Magazine (Maybe It's Right To Be Nervous Now) (2000) [FLAC]\CD1\06 - I Love You You Big Dummy.wav

Peak level 100.0 %
Extraction speed 2.6 X
Track quality 100.0 %
Test CRC 9BC5C8E2
Copy CRC 9BC5C8E2
Accurately ripped (confidence 8) [3DB21BC8] (AR v2)
Copy OK

Track 7

Filename C:\Users\biafr_000\Music\Magazine - Magazine (Maybe It's Right To Be Nervous Now) (2000) [FLAC]\CD1\07 - My Tulpa.wav

Peak level 100.0 %
Extraction speed 2.8 X
Track quality 100.0 %
Test CRC 63543A9E
Copy CRC 63543A9E
Accurately ripped (confidence 7) [CA8ED7A9] (AR v2)
Copy OK

Track 8

Filename C:\Users\biafr_000\Music\Magazine - Magazine (Maybe It's Right To Be Nervous Now) (2000) [FLAC]\CD1\08 - Definitive Gaze (Live).wav

Peak level 100.0 %
Extraction speed 2.9 X
Track quality 100.0 %
Test CRC 978A4248
Copy CRC 978A4248
Accurately ripped (confidence 8) [13DF1FF3] (AR v2)
Copy OK

Track 9

Filename C:\Users\biafr_000\Music\Magazine - Magazine (Maybe It's Right To Be Nervous Now) (2000) [FLAC]\CD1\09 - Parade (Live).wav

Peak level 100.0 %
Extraction speed 2.8 X
Track quality 99.9 %
Test CRC 1E4829D5
Copy CRC 1E4829D5
Accurately ripped (confidence 8) [8D6B93A5] (AR v2)
Copy OK

Track 10

Filename C:\Users\biafr_000\Music\Magazine - Magazine (Maybe It's Right To Be Nervous Now) (2000) [FLAC]\CD1\10 - Light Pours Out Of Me (Version).wav

Peak level 99.6 %
Extraction speed 3.1 X
Track quality 100.0 %
Test CRC 28D22B23
Copy CRC 28D22B23
Accurately ripped (confidence 8) [14F5412D] (AR v2)
Copy OK

Track 11

Filename C:\Users\biafr_000\Music\Magazine - Magazine (Maybe It's Right To Be Nervous Now) (2000) [FLAC]\CD1\11 - Rhythm Of Cruelty.wav

Peak level 100.0 %
Extraction speed 3.2 X
Track quality 100.0 %
Test CRC 2D26D7BC
Copy CRC 2D26D7BC
Accurately ripped (confidence 8) [A1AF4988] (AR v2)
Copy OK

Track 12

Filename C:\Users\biafr_000\Music\Magazine - Magazine (Maybe It's Right To Be Nervous Now) (2000) [FLAC]\CD1\12 - TV Baby.wav

Peak level 100.0 %
Extraction speed 2.6 X
Track quality 99.9 %
Test CRC 4E4DFAFD
Copy CRC 4E4DFAFD
Accurately ripped (confidence 8) [B580B905] (AR v2)
Copy OK

Track 13

Filename C:\Users\biafr_000\Music\Magazine - Magazine (Maybe It's Right To Be Nervous Now) (2000) [FLAC]\CD1\13 - Back To Nature.wav

Peak level 100.0 %
Extraction speed 3.1 X
Track quality 99.9 %
Test CRC DDC6DEDA
Copy CRC DDC6DEDA
Accurately ripped (confidence 8) [14ED47D9] (AR v2)
Copy OK

Track 14

Filename C:\Users\biafr_000\Music\Magazine - Magazine (Maybe It's Right To Be Nervous Now) (2000) [FLAC]\CD1\14 - Permafrost (Live).wav

Peak level 100.0 %
Extraction speed 3.8 X
Track quality 100.0 %
Test CRC 21C4E30F
Copy CRC 21C4E30F
Accurately ripped (confidence 8) [A2D897A7] (AR v2)
Copy OK

Track 15

Filename C:\Users\biafr_000\Music\Magazine - Magazine (Maybe It's Right To Be Nervous Now) (2000) [FLAC]\CD1\15 - Feed The Enemy (Live).wav

Peak level 99.2 %
Extraction speed 3.7 X
Track quality 100.0 %
Test CRC 6331ECF7
Copy CRC 6331ECF7
Accurately ripped (confidence 9) [D720EEE0] (AR v2)
Copy OK


All tracks accurately ripped

No errors occurred

End of status report

–– CUETools DB Plugin V2.1.6

[CTDB TOCID: 0IpLshE69dOD9JGtpCJdq_gwrd8-] found
Submit result: already submitted
Track | CTDB Status
1 | (14/14) Accurately ripped
2 | (14/14) Accurately ripped
3 | (13/14) Accurately ripped, or (1/14) differs in 24 samples @01:22:41
4 | (13/14) Accurately ripped, or (1/14) differs in 250 samples @01:26:42-01:26:43
5 | (14/14) Accurately ripped
6 | (14/14) Accurately ripped
7 | (14/14) Accurately ripped
8 | (14/14) Accurately ripped
9 | (14/14) Accurately ripped
10 | (14/14) Accurately ripped
11 | (14/14) Accurately ripped
12 | (14/14) Accurately ripped
13 | (14/14) Accurately ripped
14 | (14/14) Accurately ripped
15 | (14/14) Accurately ripped


==== Log checksum 1106687B51D60F7E20EE855A73B3AB49022CD25E6AFB53239183D6379E8FF436 ====


Exact Audio Copy V1.3 from 2. September 2016

EAC extraction logfile from 4. April 2017, 21:33

Magazine / The Correct Use Of Soap-Magic, Murder & The Weather Era

Used drive : TSSTcorpCDDVDW SH-224DB Adapter: 1 ID: 0

Read mode : Secure
Utilize accurate stream : Yes
Defeat audio cache : Yes
Make use of C2 pointers : No

Read offset correction : 6
Overread into Lead-In and Lead-Out : No
Fill up missing offset samples with silence : Yes
Delete leading and trailing silent blocks : No
Null samples used in CRC calculations : Yes
Used interface : Native Win32 interface for Win NT & 2000
Gap handling : Appended to previous track

Used output format : User Defined Encoder
Selected bitrate : 1024 kBit/s
Quality : High
Add ID3 tag : No
Command line compressor : C:\Program Files (x86)\Exact Audio Copy\Flac\flac.exe
Additional command line options : -8 -V -T "ARTIST=%artist%" -T "TITLE=%title%" -T "ALBUM=%albumtitle%" -T "DATE=%year%" -T "TRACKNUMBER=%tracknr%" -T "TOTALTRACKS=%numtracks%" -T "GENRE=%genre%" -T "ALBUMARTIST=%albumartist%" -T "ALBUM ARTIST=%albumartist%" -T "COMMENT=EAC Secure Mode, Test & Copy, AccurateRip, FLAC -8" %source%


TOC of the extracted CD

Track | Start | Length | Start sector | End sector
––––––––––––––––––––––––––––-
1 | 0:00.00 | 4:19.40 | 0 | 19464
2 | 4:19.40 | 3:02.55 | 19465 | 33169
3 | 7:22.20 | 3:58.42 | 33170 | 51061
4 | 11:20.62 | 2:18.73 | 51062 | 61484
5 | 13:39.60 | 3:44.00 | 61485 | 78284
6 | 17:23.60 | 3:20.57 | 78285 | 93341
7 | 20:44.42 | 4:36.73 | 93342 | 114114
8 | 25:21.40 | 3:56.32 | 114115 | 131846
9 | 29:17.72 | 5:16.23 | 131847 | 155569
10 | 34:34.20 | 3:06.47 | 155570 | 169566
11 | 37:40.67 | 5:06.60 | 169567 | 192576
12 | 42:47.52 | 2:41.50 | 192577 | 204701
13 | 45:29.27 | 2:43.53 | 204702 | 216979
14 | 48:13.05 | 3:35.30 | 216980 | 233134
15 | 51:48.35 | 3:50.57 | 233135 | 250441


Track 1

Filename C:\Users\biafr_000\Music\Magazine - Magazine (Maybe It's Right To Be Nervous Now) (2000) [FLAC]\CD2\01 - A Song From Under The Floorboard (Live).wav

Pre-gap length 0:00:02.00

Peak level 100.0 %
Extraction speed 1.8 X
Track quality 100.0 %
Test CRC 6BBA7092
Copy CRC 6BBA7092
Accurately ripped (confidence 8) [B4C058E9] (AR v2)
Copy OK

Track 2

Filename C:\Users\biafr_000\Music\Magazine - Magazine (Maybe It's Right To Be Nervous Now) (2000) [FLAC]\CD2\02 - Twenty Years Ago.wav

Peak level 100.0 %
Extraction speed 1.8 X
Track quality 100.0 %
Test CRC 11FC94F0
Copy CRC 11FC94F0
Accurately ripped (confidence 8) [B30BEDE4] (AR v2)
Copy OK

Track 3

Filename C:\Users\biafr_000\Music\Magazine - Magazine (Maybe It's Right To Be Nervous Now) (2000) [FLAC]\CD2\03 - Thank You (Falettinme Be Mice Elf Agin).wav

Peak level 100.0 %
Extraction speed 2.1 X
Track quality 100.0 %
Test CRC 3E0187B7
Copy CRC 3E0187B7
Accurately ripped (confidence 8) [3D8E9D17] (AR v2)
Copy OK

Track 4

Filename C:\Users\biafr_000\Music\Magazine - Magazine (Maybe It's Right To Be Nervous Now) (2000) [FLAC]\CD2\04 - The Book.wav

Peak level 99.2 %
Extraction speed 2.0 X
Track quality 100.0 %
Test CRC 8F9149E8
Copy CRC 8F9149E8
Accurately ripped (confidence 8) [2A7BC4B4] (AR v2)
Copy OK

Track 5

Filename C:\Users\biafr_000\Music\Magazine - Magazine (Maybe It's Right To Be Nervous Now) (2000) [FLAC]\CD2\05 - Upside Down.wav

Peak level 100.0 %
Extraction speed 2.3 X
Track quality 100.0 %
Test CRC 08167930
Copy CRC 08167930
Accurately ripped (confidence 8) [3DB2A9E9] (AR v2)
Copy OK

Track 6

Filename C:\Users\biafr_000\Music\Magazine - Magazine (Maybe It's Right To Be Nervous Now) (2000) [FLAC]\CD2\06 - Sweetheart Contract.wav

Pre-gap length 0:00:02.25

Peak level 97.0 %
Extraction speed 2.4 X
Track quality 100.0 %
Test CRC 15E0894B
Copy CRC 15E0894B
Accurately ripped (confidence 8) [7CB10283] (AR v2)
Copy OK

Track 7

Filename C:\Users\biafr_000\Music\Magazine - Magazine (Maybe It's Right To Be Nervous Now) (2000) [FLAC]\CD2\07 - Shot By Both Sides (Live).wav

Pre-gap length 0:00:03.37

Peak level 100.0 %
Extraction speed 2.6 X
Track quality 100.0 %
Test CRC DE9BAB4E
Copy CRC DE9BAB4E
Accurately ripped (confidence 9) [F6304B90] (AR v2)
Copy OK

Track 8

Filename C:\Users\biafr_000\Music\Magazine - Magazine (Maybe It's Right To Be Nervous Now) (2000) [FLAC]\CD2\08 - Because You're Frightened (Live).wav

Pre-gap length 0:00:01.18

Peak level 100.0 %
Extraction speed 2.7 X
Track quality 100.0 %
Test CRC 80E3E810
Copy CRC 80E3E810
Accurately ripped (confidence 8) [D5DAEAEF] (AR v2)
Copy OK

Track 9

Filename C:\Users\biafr_000\Music\Magazine - Magazine (Maybe It's Right To Be Nervous Now) (2000) [FLAC]\CD2\09 - I Want To Burn Again.wav

Peak level 96.0 %
Extraction speed 2.9 X
Track quality 100.0 %
Test CRC CCAF275D
Copy CRC CCAF275D
Accurately ripped (confidence 8) [FA3E86B4] (AR v2)
Copy OK

Track 10

Filename C:\Users\biafr_000\Music\Magazine - Magazine (Maybe It's Right To Be Nervous Now) (2000) [FLAC]\CD2\10 - Model Worker (Live).wav

Pre-gap length 0:00:01.60

Peak level 100.0 %
Extraction speed 2.8 X
Track quality 100.0 %
Test CRC D93C71A1
Copy CRC D93C71A1
Accurately ripped (confidence 8) [FEB26D9E] (AR v2)
Copy OK

Track 11

Filename C:\Users\biafr_000\Music\Magazine - Magazine (Maybe It's Right To Be Nervous Now) (2000) [FLAC]\CD2\11 - Vigilance (Alt Mix).wav

Pre-gap length 0:00:01.50

Peak level 99.9 %
Extraction speed 3.1 X
Track quality 100.0 %
Test CRC E22536E3
Copy CRC E22536E3
Accurately ripped (confidence 9) [04CC8DA1] (AR v2)
Copy OK

Track 12

Filename C:\Users\biafr_000\Music\Magazine - Magazine (Maybe It's Right To Be Nervous Now) (2000) [FLAC]\CD2\12 - In The Dark.wav

Pre-gap length 0:00:01.60

Peak level 100.0 %
Extraction speed 2.2 X
Track quality 99.9 %
Test CRC F8914146
Copy CRC F8914146
Accurately ripped (confidence 8) [6BC7B264] (AR v2)
Copy OK

Track 13

Filename C:\Users\biafr_000\Music\Magazine - Magazine (Maybe It's Right To Be Nervous Now) (2000) [FLAC]\CD2\13 - The Operative.wav

Pre-gap length 0:00:01.22

Peak level 96.1 %
Extraction speed 3.0 X
Track quality 100.0 %
Test CRC 2C1A41C2
Copy CRC 2C1A41C2
Accurately ripped (confidence 8) [2141F4BB] (AR v2)
Copy OK

Track 14

Filename C:\Users\biafr_000\Music\Magazine - Magazine (Maybe It's Right To Be Nervous Now) (2000) [FLAC]\CD2\14 - Come Alive (Alt Mix).wav

Pre-gap length 0:00:03.00

Peak level 100.0 %
Extraction speed 3.2 X
Track quality 100.0 %
Test CRC F544B5FC
Copy CRC F544B5FC
Accurately ripped (confidence 9) [C8505F30] (AR v2)
Copy OK

Track 15

Filename C:\Users\biafr_000\Music\Magazine - Magazine (Maybe It's Right To Be Nervous Now) (2000) [FLAC]\CD2\15 - Thinking Flame (The Garden) (Alt Mix).wav

Pre-gap length 0:00:01.25

Peak level 99.8 %
Extraction speed 2.6 X
Track quality 99.9 %
Test CRC DDAC1CC0
Copy CRC DDAC1CC0
Accurately ripped (confidence 9) [0B1AAE73] (AR v2)
Copy OK


All tracks accurately ripped

No errors occurred

End of status report

–– CUETools DB Plugin V2.1.6

[CTDB TOCID: thlfQglFTfDi.X.zI5WsbijuHxs-] database access error: The remote name could not be resolved: 'db.cuetools.net'


==== Log checksum B7227F8436FF4CA7BD8B3CBE38ACE5D7C64A91101A716B28D72777F429A0B9AC ====


Exact Audio Copy V1.3 from 2. September 2016

EAC extraction logfile from 4. April 2017, 20:38

Magazine / The Peel Sessions

Used drive : TSSTcorpCDDVDW SH-224DB Adapter: 1 ID: 0

Read mode : Secure
Utilize accurate stream : Yes
Defeat audio cache : Yes
Make use of C2 pointers : No

Read offset correction : 6
Overread into Lead-In and Lead-Out : No
Fill up missing offset samples with silence : Yes
Delete leading and trailing silent blocks : No
Null samples used in CRC calculations : Yes
Used interface : Native Win32 interface for Win NT & 2000
Gap handling : Appended to previous track

Used output format : User Defined Encoder
Selected bitrate : 1024 kBit/s
Quality : High
Add ID3 tag : No
Command line compressor : C:\Program Files (x86)\Exact Audio Copy\Flac\flac.exe
Additional command line options : -8 -V -T "ARTIST=%artist%" -T "TITLE=%title%" -T "ALBUM=%albumtitle%" -T "DATE=%year%" -T "TRACKNUMBER=%tracknr%" -T "TOTALTRACKS=%numtracks%" -T "GENRE=%genre%" -T "ALBUMARTIST=%albumartist%" -T "ALBUM ARTIST=%albumartist%" -T "COMMENT=EAC Secure Mode, Test & Copy, AccurateRip, FLAC -8" %source%


TOC of the extracted CD

Track | Start | Length | Start sector | End sector
––––––––––––––––––––––––––––-
1 | 0:00.00 | 2:50.55 | 0 | 12804
2 | 2:50.55 | 4:18.37 | 12805 | 32191
3 | 7:09.17 | 4:02.65 | 32192 | 50406
4 | 11:12.07 | 2:04.73 | 50407 | 59779
5 | 13:17.05 | 4:18.32 | 59780 | 79161
6 | 17:35.37 | 4:31.18 | 79162 | 99504
7 | 22:06.55 | 3:46.17 | 99505 | 116471
8 | 25:52.72 | 2:57.05 | 116472 | 129751
9 | 28:50.02 | 3:34.00 | 129752 | 145801
10 | 32:24.02 | 3:53.33 | 145802 | 163309
11 | 36:17.35 | 5:45.62 | 163310 | 189246
12 | 42:03.22 | 4:07.65 | 189247 | 207836
13 | 46:11.12 | 3:05.25 | 207837 | 221736
14 | 49:16.37 | 3:59.13 | 221737 | 239674
15 | 53:15.50 | 2:54.05 | 239675 | 252729


Track 1

Filename C:\Users\biafr_000\Music\Magazine - Magazine (Maybe It's Right To Be Nervous Now) (2000) [FLAC]\CD3\01 - Touch And Go.wav

Pre-gap length 0:00:02.00

Peak level 98.7 %
Extraction speed 1.7 X
Track quality 100.0 %
Test CRC 89D6F01D
Copy CRC 89D6F01D
Accurately ripped (confidence 3) [A713FAEA] (AR v1)
Copy OK

Track 2

Filename C:\Users\biafr_000\Music\Magazine - Magazine (Maybe It's Right To Be Nervous Now) (2000) [FLAC]\CD3\02 - The Light Pours Out Of Me.wav

Peak level 98.4 %
Extraction speed 2.0 X
Track quality 100.0 %
Test CRC 1F20F682
Copy CRC 1F20F682
Accurately ripped (confidence 3) [55491F22] (AR v1)
Copy OK

Track 3

Filename C:\Users\biafr_000\Music\Magazine - Magazine (Maybe It's Right To Be Nervous Now) (2000) [FLAC]\CD3\03 - Real Life (Definitive Gaze).wav

Peak level 98.3 %
Extraction speed 2.1 X
Track quality 100.0 %
Test CRC 911DAC05
Copy CRC 911DAC05
Accurately ripped (confidence 3) [D4326AE9] (AR v1)
Copy OK

Track 4

Filename C:\Users\biafr_000\Music\Magazine - Magazine (Maybe It's Right To Be Nervous Now) (2000) [FLAC]\CD3\04 - My Mind Ain't So Open.wav

Peak level 97.2 %
Extraction speed 2.0 X
Track quality 100.0 %
Test CRC 5549F647
Copy CRC 5549F647
Accurately ripped (confidence 3) [3A859475] (AR v1)
Copy OK

Track 5

Filename C:\Users\biafr_000\Music\Magazine - Magazine (Maybe It's Right To Be Nervous Now) (2000) [FLAC]\CD3\05 - Give Me Everything.wav

Peak level 100.0 %
Extraction speed 2.4 X
Track quality 100.0 %
Test CRC AD0B087C
Copy CRC AD0B087C
Accurately ripped (confidence 3) [2FAF5672] (AR v1)
Copy OK

Track 6

Filename C:\Users\biafr_000\Music\Magazine - Magazine (Maybe It's Right To Be Nervous Now) (2000) [FLAC]\CD3\06 - Burst.wav

Peak level 98.9 %
Extraction speed 2.1 X
Track quality 99.9 %
Test CRC F1B2DC3E
Copy CRC F1B2DC3E
Accurately ripped (confidence 3) [3D8E3966] (AR v1)
Copy OK

Track 7

Filename C:\Users\biafr_000\Music\Magazine - Magazine (Maybe It's Right To Be Nervous Now) (2000) [FLAC]\CD3\07 - I Love You, You Big Dummy.wav

Peak level 100.0 %
Extraction speed 2.6 X
Track quality 100.0 %
Test CRC 62F1A657
Copy CRC 62F1A657
Accurately ripped (confidence 3) [A9EE83A6] (AR v1)
Copy OK

Track 8

Filename C:\Users\biafr_000\Music\Magazine - Magazine (Maybe It's Right To Be Nervous Now) (2000) [FLAC]\CD3\08 - Boredom.wav

Pre-gap length 0:00:01.10

Peak level 99.4 %
Extraction speed 2.6 X
Track quality 100.0 %
Test CRC 37478B5C
Copy CRC 37478B5C
Accurately ripped (confidence 3) [1E1E7ECC] (AR v1)
Copy OK

Track 9

Filename C:\Users\biafr_000\Music\Magazine - Magazine (Maybe It's Right To Be Nervous Now) (2000) [FLAC]\CD3\09 - TV Baby.wav

Peak level 99.9 %
Extraction speed 2.8 X
Track quality 100.0 %
Test CRC 75631318
Copy CRC 75631318
Accurately ripped (confidence 3) [EE6EB9C6] (AR v1)
Copy OK

Track 10

Filename C:\Users\biafr_000\Music\Magazine - Magazine (Maybe It's Right To Be Nervous Now) (2000) [FLAC]\CD3\10 - Thank You (Falettinme Be Mice Elf Agin).wav

Peak level 96.4 %
Extraction speed 2.9 X
Track quality 100.0 %
Test CRC A3447ACA
Copy CRC A3447ACA
Accurately ripped (confidence 3) [A48C6042] (AR v1)
Copy OK

Track 11

Filename C:\Users\biafr_000\Music\Magazine - Magazine (Maybe It's Right To Be Nervous Now) (2000) [FLAC]\CD3\11 - Permafrost.wav

Peak level 98.0 %
Extraction speed 3.2 X
Track quality 100.0 %
Test CRC 6EC4A4D8
Copy CRC 6EC4A4D8
Accurately ripped (confidence 3) [95F81B60] (AR v1)
Copy OK

Track 12

Filename C:\Users\biafr_000\Music\Magazine - Magazine (Maybe It's Right To Be Nervous Now) (2000) [FLAC]\CD3\12 - A Song From Under The Floorboards.wav

Peak level 98.2 %
Extraction speed 3.2 X
Track quality 100.0 %
Test CRC CC828156
Copy CRC CC828156
Accurately ripped (confidence 3) [9AD7720B] (AR v1)
Copy OK

Track 13

Filename C:\Users\biafr_000\Music\Magazine - Magazine (Maybe It's Right To Be Nervous Now) (2000) [FLAC]\CD3\13 - Twenty Years Ago.wav

Peak level 98.6 %
Extraction speed 3.2 X
Track quality 100.0 %
Test CRC 193FC1BA
Copy CRC 193FC1BA
Accurately ripped (confidence 3) [FF1D7277] (AR v1)
Copy OK

Track 14

Filename C:\Users\biafr_000\Music\Magazine - Magazine (Maybe It's Right To Be Nervous Now) (2000) [FLAC]\CD3\14 - Look What Fear's Done To My Body (Because You're Frightened).wav

Peak level 97.2 %
Extraction speed 3.4 X
Track quality 100.0 %
Test CRC 507BC617
Copy CRC 507BC617
Accurately ripped (confidence 3) [8A23CF8F] (AR v1)
Copy OK

Track 15

Filename C:\Users\biafr_000\Music\Magazine - Magazine (Maybe It's Right To Be Nervous Now) (2000) [FLAC]\CD3\15 - Model Worker.wav

Pre-gap length 0:00:01.13

Peak level 98.9 %
Extraction speed 3.3 X
Track quality 100.0 %
Test CRC 4EB9F0D9
Copy CRC 4EB9F0D9
Accurately ripped (confidence 3) [8C330935] (AR v1)
Copy OK


All tracks accurately ripped

No errors occurred

End of status report

–– CUETools DB Plugin V2.1.6

[CTDB TOCID: KdmtZplKkqHfAYUQ3gye3rLuKNo-] found
Submit result: KdmtZplKkqHfAYUQ3gye3rLuKNo- has been confirmed
Track | CTDB Status
1 | (13/13) Accurately ripped
2 | (13/13) Accurately ripped
3 | (13/13) Accurately ripped
4 | (13/13) Accurately ripped
5 | (13/13) Accurately ripped
6 | (13/13) Accurately ripped
7 | (13/13) Accurately ripped
8 | (13/13) Accurately ripped
9 | (13/13) Accurately ripped
10 | (13/13) Accurately ripped
11 | (13/13) Accurately ripped
12 | (13/13) Accurately ripped
13 | (13/13) Accurately ripped
14 | (13/13) Accurately ripped
15 | (13/13) Accurately ripped


==== Log checksum FD69E1BEE87F0A511A3E2A3DEC01A592D588A452F503D80F2515827D34790CCB ====