Subcategories

Magma - Rïah Sahïltaahk (2014)

Posted By: gribovar
Magma - Rïah Sahïltaahk (2014)

Magma - Rïah Sahïltaahk (2014)
EAC Rip | WavPack (image+.cue+log) - 164 MB | MP3 CBR 320 kbps (LAME 3.93) - 57 MB | Covers - 163 MB
Genre: Avant-Prog/Zeuhl | RAR 3% Rec. | Label: Jazz Village (JV570045)

Rïah Sahïltaahk is listed by most sources as a new studio album by Magma but it is in fact simply a re-recording of the first track of the same name from their second album. Apparently, Magma’s leader, Christian Vander, was never satisfied with the original 21-minute arrangement of Rïah Sahïltaahk that appeared on 1971’s "1001 Degrees Centigrades". Thus, over 40 years later, he has set out to rectify the situation. And the result? There are plenty of familiar passages throughout this 24-minute version. However, Vander has broken up the original single-track piece into seven separately-named tracks. Also gone are the horns of the 1971 recording, notably the distinctive bass clarinet of Yochk’o Seffer. In the place of the brass and woodwinds, we get guitar, vibraphone, and female vocals. All in all, not a bad tradeoff. Also, due to modern technology, this EP has a cleaner, clearer mix than the original.
Tracklist:
01. Watseï Kobaïa
02. Di Mahntër Sahïltaahk
03. Süri Sï Toïdo
04. Ün Zoïn Glaö
05. Ïss Walomëhn dôm
06. Bradïa ëtnah
07. Môm Loïlë
08. Woleï

Total time: 24:27

Exact Audio Copy V1.0 beta 3 from 29. August 2011

EAC extraction logfile from 24. October 2014, 11:40

Magma / Riah Sahiltaahk

Used drive : hp DVD A DH16ABSH Adapter: 0 ID: 1

Read mode : Secure
Utilize accurate stream : Yes
Defeat audio cache : Yes
Make use of C2 pointers : No

Read offset correction : 6
Overread into Lead-In and Lead-Out : No
Fill up missing offset samples with silence : Yes
Delete leading and trailing silent blocks : No
Null samples used in CRC calculations : Yes
Used interface : Native Win32 interface for Win NT & 2000

Used output format : User Defined Encoder
Selected bitrate : 128 kBit/s
Quality : High
Add ID3 tag : No
Command line compressor : C:\Program Files (x86)\EAC\Wavpack\wavpack.exe
Additional command line options : -hm %source%


TOC of the extracted CD

Track | Start | Length | Start sector | End sector
––––––––––––––––––––––––––––-
1 | 0:00.00 | 4:40.74 | 0 | 21073
2 | 4:40.74 | 3:00.34 | 21074 | 34607
3 | 7:41.33 | 3:31.08 | 34608 | 50440
4 | 11:12.41 | 3:10.45 | 50441 | 64735
5 | 14:23.11 | 2:25.05 | 64736 | 75615
6 | 16:48.16 | 2:24.04 | 75616 | 86419
7 | 19:12.20 | 3:45.55 | 86420 | 103349
8 | 22:58.00 | 1:29.20 | 103350 | 110044


Range status and errors

Selected range

Filename C:\_NL+_\CD31\Magma - Riah Sahiltaahk.wav

Peak level 97.7 %
Extraction speed 2.6 X
Range quality 100.0 %
Test CRC 5392B99A
Copy CRC 5392B99A
Copy OK

No errors occurred


AccurateRip summary

Track 1 not present in database
Track 2 not present in database
Track 3 not present in database
Track 4 not present in database
Track 5 not present in database
Track 6 not present in database
Track 7 not present in database
Track 8 not present in database

None of the tracks are present in the AccurateRip database

End of status report

==== Log checksum 7A6F0D78AB24E3A4604E6CC053C5F1046B6868BC9D42A780A2D87C0FE5500E09 ====

[CUETools log; Date: 26.11.2014 18:37:06; Version: 2.1.4]
[CTDB TOCID: JOCGTbBQfCJTHZCPlViPV.gDWio-] found.
Track | CTDB Status
1 | (2/2) Accurately ripped
2 | (2/2) Accurately ripped
3 | (2/2) Accurately ripped
4 | (2/2) Accurately ripped
5 | (2/2) Accurately ripped
6 | (2/2) Accurately ripped
7 | (2/2) Accurately ripped
8 | (2/2) Accurately ripped
[AccurateRip ID: 000855f2-0036207a-5805bb08] found.
Track [ CRC | V2 ] Status
01 [d2162842|1ba9f2a5] (0+1/1) Accurately ripped
02 [07822927|3faf07cb] (0+1/1) Accurately ripped
03 [137272a0|91864cee] (0+1/1) Accurately ripped
04 [c8b5fda5|7e473594] (0+1/1) Accurately ripped
05 [53e0b20e|ca8653d2] (0+1/1) Accurately ripped
06 [d754cfb6|e5a689e3] (0+1/1) Accurately ripped
07 [68325d33|010de452] (0+1/1) Accurately ripped
08 [7e1ffe0e|34a351d2] (0+1/1) Accurately ripped

Track Peak [ CRC32 ] [W/O NULL] [ LOG ]
– 97,7 [5392B99A] [64E53C8B] CRC32
01 97,7 [9BA04446] [E10704E4]
02 97,7 [73370C96] [D22DB01A]
03 97,7 [D0B02336] [14FD4EFA]
04 97,7 [F65ABF64] [6B387D29]
05 97,7 [F59256D4] [F9DA55FE]
06 97,7 [69EEE305] [5F11E13E]
07 97,7 [A7B31537] [E936605B]
08 46,8 [300A1685] [CAB90468]

Thanks to tatuk

See also:
Magma - Studio Zünd (2009) [12 CD Box-Set]

LOSSLESS:
Nitroflare.com
_______________

MP3 320 kbps:
Nitroflare.com
_______________

Covers:
Nitroflare.com

LOSSLESS:
Depositfiles.com
_______________

MP3 320 kbps:
Depositfiles.com
_______________

Covers:
Depositfiles.com