Subcategories

Alberic Magnard - The Four Symphonies (Orchestre du Capitole de Toulouse - Plasson)

Posted By: tapaz9
Alberic Magnard - The Four Symphonies (Orchestre du Capitole de Toulouse - Plasson)

Alberic Magnard - The Four Symphonies (Orchestre du Capitole de Toulouse - Plasson)
Classical | EAC: FLAC+Cue+Log | 3 Cd, Covers | 942 Mb
Label: EMI - Date: 1997

Along with the symphonies of Dukas, Chausson, d'Indy, and Roussel, these are key works, tracing an arc from romanticism to a sort of neoclassicism. The performances are brilliant and committed.
Jonathan Scheuer @ Amazon.com
Tracks CD 1:

01. Symphony No 1 - I Strepitoso [0:09:36.65]
02. II Religioso, largo - Andante [0:09:07.00]
03. III Presto [0:04:02.13]
04. IV Molto energico [0:07:59.00]
05. Symphony No 3 - I Introduction et ouverture (modere) [0:14:11.12]
06. II Danses (tres vif) [0:06:21.63]
07. III Pastorale (modere) [0:10:56.25]
Christian Fougeroux, oboe
08. IV Final (vif) [0:08:53.63]

Tracks CD 2:

01. Symphony No 2 in B flat minor, Op 11 - - I. Ouverture (assez anime) [0:11:20.40]
02. Symph No 2 - - II. Danses (vif) [0:05:53.25]
03. Symph No 2 - - III. Chant varie (andante con moto) [0:14:01.13]
04. Symph No 2 - - IV. Final (vif et gai) [0:08:51.50]
05. Hymne a la Justice, op 14 [0:14:54.00]
06. Ouverture, Op 10 [0:12:23.40]

Tracks CD 3:

01. Symphony No 4 in C sharp minor, op 21 - - I. Modere [0:10:31.13]
02. Symph No 4 - - II. Vif [0:05:07.42]
03. Symph No 4 - - III. Sans lenteur et nuance [0:12:35.40]
04. Symph No 4 - - IV. Anime [0:07:56.30]
05. Chant funebre, op 9 [0:14:53.66]


Exact Audio Copy V1.0 beta 3 from 29. August 2011

EAC extraction logfile from 24. January 2013, 0:25

Alberic Magnard / Symphonies Nos 1 & 3 (Orchestre du Capitole de Toulouse - Plasson)

Used drive : TSSTcorpCDDVDW SH-S223C Adapter: 2 ID: 1

Read mode : Secure
Utilize accurate stream : Yes
Defeat audio cache : Yes
Make use of C2 pointers : No

Read offset correction : 697
Overread into Lead-In and Lead-Out : No
Fill up missing offset samples with silence : Yes
Delete leading and trailing silent blocks : No
Null samples used in CRC calculations : Yes
Used interface : Native Win32 interface for Win NT & 2000

Used output format : User Defined Encoder
Selected bitrate : 896 kBit/s
Quality : High
Add ID3 tag : No
Command line compressor : C:\Program Files (x86)\Exact Audio Copy\FLAC\FLAC.EXE
Additional command line options : -V -0 -T "COMMENT=Ripped by Tapaz9" -T "artist=%artist%" -T "title=%title%" -T "album=%albumtitle%" -T "date=%year%" -T "tracknumber=%tracknr%" -T "genre=%genre%" %source%


TOC of the extracted CD

Track | Start | Length | Start sector | End sector
––––––––––––––––––––––––––––-
1 | 0:00.00 | 9:36.65 | 0 | 43264
2 | 9:36.65 | 9:07.00 | 43265 | 84289
3 | 18:43.65 | 4:02.13 | 84290 | 102452
4 | 22:46.03 | 7:59.00 | 102453 | 138377
5 | 30:45.03 | 14:11.12 | 138378 | 202214
6 | 44:56.15 | 6:21.63 | 202215 | 230852
7 | 51:18.03 | 10:56.25 | 230853 | 280077
8 | 62:14.28 | 8:53.63 | 280078 | 320115


Range status and errors

Selected range

Filename F:\Musique\Magnard\Magnard_Symphonies_Plasson\CD 1\Alberic Magnard - Symphonies Nos 1 & 3 (Orchestre du Capitole de Toulouse - Plasson).wav

Peak level 85.4 %
Extraction speed 13.9 X
Range quality 99.9 %
Copy CRC 55B488A7
Copy OK

No errors occurred

End of status report

==== Log checksum 908C6EE5479241612CA4EDE3F022E95145E8DEFD0D9C496C7C30BA851290252B ====



Exact Audio Copy V1.0 beta 3 from 29. August 2011

EAC extraction logfile from 24. January 2013, 0:43

Alberic Magnard / The Four Symphonies CD 2 (Orchestre du Capitole de Toulouse - Plasson)

Used drive : TSSTcorpCDDVDW SH-S223C Adapter: 2 ID: 1

Read mode : Secure
Utilize accurate stream : Yes
Defeat audio cache : Yes
Make use of C2 pointers : No

Read offset correction : 697
Overread into Lead-In and Lead-Out : No
Fill up missing offset samples with silence : Yes
Delete leading and trailing silent blocks : No
Null samples used in CRC calculations : Yes
Used interface : Native Win32 interface for Win NT & 2000

Used output format : User Defined Encoder
Selected bitrate : 896 kBit/s
Quality : High
Add ID3 tag : No
Command line compressor : C:\Program Files (x86)\Exact Audio Copy\FLAC\FLAC.EXE
Additional command line options : -V -0 -T "COMMENT=Ripped by Tapaz9" -T "artist=%artist%" -T "title=%title%" -T "album=%albumtitle%" -T "date=%year%" -T "tracknumber=%tracknr%" -T "genre=%genre%" %source%


TOC of the extracted CD

Track | Start | Length | Start sector | End sector
––––––––––––––––––––––––––––-
1 | 0:00.00 | 11:20.40 | 0 | 51039
2 | 11:20.40 | 5:53.25 | 51040 | 77539
3 | 17:13.65 | 14:01.13 | 77540 | 140627
4 | 31:15.03 | 8:51.50 | 140628 | 180502
5 | 40:06.53 | 14:54.00 | 180503 | 247552
6 | 55:00.53 | 12:23.40 | 247553 | 303317


Range status and errors

Selected range

Filename F:\Musique\Magnard\Magnard_Symphonies_Plasson\CD 2\Alberic Magnard - The Four Symphonies CD 2 (Orchestre du Capitole de Toulouse - Plasson).wav

Peak level 100.0 %
Extraction speed 15.1 X
Range quality 100.0 %
Copy CRC F06D3846
Copy OK

No errors occurred

End of status report

==== Log checksum 4FB9278E7546353D00D4713388EFA4CA716B1C7A63D48ED99BE52B93881D23D5 ====



Exact Audio Copy V1.0 beta 3 from 29. August 2011

EAC extraction logfile from 24. January 2013, 0:49

Alberic Magnard / The Four Symphonies CD 3 (Orchestre du Capitole de Toulouse - Plasson)

Used drive : TSSTcorpCDDVDW SH-S223C Adapter: 2 ID: 1

Read mode : Secure
Utilize accurate stream : Yes
Defeat audio cache : Yes
Make use of C2 pointers : No

Read offset correction : 697
Overread into Lead-In and Lead-Out : No
Fill up missing offset samples with silence : Yes
Delete leading and trailing silent blocks : No
Null samples used in CRC calculations : Yes
Used interface : Native Win32 interface for Win NT & 2000

Used output format : User Defined Encoder
Selected bitrate : 896 kBit/s
Quality : High
Add ID3 tag : No
Command line compressor : C:\Program Files (x86)\Exact Audio Copy\FLAC\FLAC.EXE
Additional command line options : -V -0 -T "COMMENT=Ripped by Tapaz9" -T "artist=%artist%" -T "title=%title%" -T "album=%albumtitle%" -T "date=%year%" -T "tracknumber=%tracknr%" -T "genre=%genre%" %source%


TOC of the extracted CD

Track | Start | Length | Start sector | End sector
––––––––––––––––––––––––––––-
1 | 0:00.00 | 10:31.13 | 0 | 47337
2 | 10:31.13 | 5:07.42 | 47338 | 70404
3 | 15:38.55 | 12:35.40 | 70405 | 127069
4 | 28:14.20 | 7:56.30 | 127070 | 162799
5 | 36:10.50 | 14:53.66 | 162800 | 229840


Range status and errors

Selected range

Filename F:\Musique\Magnard\Magnard_Symphonies_Plasson\CD 3\Alberic Magnard - The Four Symphonies CD 3 (Orchestre du Capitole de Toulouse - Plasson).wav

Peak level 99.3 %
Extraction speed 15.6 X
Range quality 100.0 %
Copy CRC DCF9CF98
Copy OK

No errors occurred

End of status report

==== Log checksum 28A0244D155A1002950FC4CABD404B20B511919583C8B674B6632F6578781C57 ====

No Mirrors and Torrent-uploads Please

See my classical digital download posts in the Vinyl & HR section or check out My Avax blog