Subcategories

Magnum - Chase The Dragon (1982)

Posted By: Andi_Deris
Magnum - Chase The Dragon (1982)

Magnum - Chase The Dragon (1982)
EAC Rip | FLAC: Image+Cue+Log | 249 Mb | MP3 CBR 320 kbps | 91 Mb | Scans | 57 Mb | Time: 35:19
Castle Communications | CLACD 222
Classic Rock, Progressive/Art Rock, Hard Rock

Chase the Dragon is the third studio album by the English rock band Magnum. It was released in 1982 on Jet Records. Overseen by the Kansas producer Jeff Glixman, Chase the Dragon was the first recorded appearance by the new keyboard player Mark Stanway, although he had made his live debut at Magnum's appearance at the Reading Festival in 1980. The album was recorded over 13 days at Town House Studios in London, and the following year Tony Clarkin flew to Axis Studios in Atlanta to mix it. However, there was a two-year delay before the album's release in 1982.

Magnum - Chase The Dragon (1982)




Magnum - Chase The Dragon (1982)


Track Listing

01. Soldier Of The Line (04:15)
02. On The Edge Of The World (04:23)
03. The Spirit (04:18)
04. Sacred Hour (05:33)
05. Walking The Straight Line (04:53)
06. We All Play The Game (04:08)
07. The Teacher (03:22)
08. The Lights Burned Out (04:28)

Produced by Jeff Glixman (Kansas, Gary Moore, Yngwie Malmsteen, Black Sabbath…)

The Band

• Bob Catley - Vocals
• Tony Clarkin - Guitar
• Wally Lowe - Bass
• Mark Stanway - Keyboards
• Kex Gorin - Drums

Notes

℗ 1982 Jet Records Ltd.
© 1991 Castle Communications Plc. UK


Exact Audio Copy V1.0 beta 6 from 9. April 2015

EAC extraction logfile from 21. August 2015, 17:17

Magnum / Chase The Dragon

Used drive : HL-DT-STDVDRAM GH22NS40 Adapter: 1 ID: 0

Read mode : Secure
Utilize accurate stream : Yes
Defeat audio cache : Yes
Make use of C2 pointers : No

Read offset correction : 667
Overread into Lead-In and Lead-Out : No
Fill up missing offset samples with silence : Yes
Delete leading and trailing silent blocks : No
Null samples used in CRC calculations : Yes
Used interface : Native Win32 interface for Win NT & 2000

Used output format : User Defined Encoder
Selected bitrate : 1024 kBit/s
Quality : High
Add ID3 tag : Yes
Command line compressor : C:\Program Files\Exact Audio Copy\Flac\flac.exe
Additional command line options : -V -8 -T "Date=%year%" -T "Genre=%genre%" %source%


TOC of the extracted CD

Track | Start | Length | Start sector | End sector
––––––––––––––––––––––––––––-
1 | 0:00.32 | 4:14.35 | 32 | 19116
2 | 4:14.67 | 4:23.00 | 19117 | 38841
3 | 8:37.67 | 4:18.03 | 38842 | 58194
4 | 12:55.70 | 5:32.37 | 58195 | 83131
5 | 18:28.32 | 4:53.28 | 83132 | 105134
6 | 23:21.60 | 4:07.55 | 105135 | 123714
7 | 27:29.40 | 3:21.52 | 123715 | 138841
8 | 30:51.17 | 4:28.05 | 138842 | 158946


Range status and errors

Selected range

Filename I:\Rips\Magnum - Chase The Dragon.wav

Peak level 100.0 %
Extraction speed 1.8 X
Range quality 100.0 %
Test CRC 345215C7
Copy CRC 345215C7
Copy OK

No errors occurred


AccurateRip summary

Track 1 accurately ripped (confidence 10) [4AB4506D] (AR v2)
Track 2 accurately ripped (confidence 10) [551BE268] (AR v2)
Track 3 accurately ripped (confidence 10) [903D722F] (AR v2)
Track 4 accurately ripped (confidence 10) [BA9A06F5] (AR v2)
Track 5 accurately ripped (confidence 10) [A5AC5133] (AR v2)
Track 6 accurately ripped (confidence 10) [F5F2E5ED] (AR v2)
Track 7 accurately ripped (confidence 10) [2F68AAD2] (AR v2)
Track 8 accurately ripped (confidence 10) [3EF3438A] (AR v2)

All tracks accurately ripped

End of status report

–– CUETools DB Plugin V2.1.6

[CTDB TOCID: xaNKA14IbStgG22SBL8LD0M68to-] found
Submit result: already submitted
Track | CTDB Status
1 | (6/6) Accurately ripped
2 | (6/6) Accurately ripped
3 | (6/6) Accurately ripped
4 | (6/6) Accurately ripped
5 | (5/6) Accurately ripped
6 | (5/6) Accurately ripped
7 | (6/6) Accurately ripped
8 | (6/6) Accurately ripped


==== Log checksum A2BA73FE7E2A2078D2F676816FF17A47B215F4EEEA6724BE10832DA19621CA7E ====


Many thanks to the original uploader: powermet


Bob Catley 1998 The Tower + 1999 Live At The Gods (Official Bootleg) [Japanese Ed. 2000] 2CD
Bob Catley 1999 Legends [Japanese Ed. 2000]
Bob Catley 2001 Middle Earth [Japanese Ed.]
Bob Catley 2003 When Empires Burns [Japanese Ed.]
Bob Catley 2006 Spirit Of Man [Japanese Ed.]
Bob Catley 2008 Immortal [Japanese Ed.]

Escape 2012 Unbreakable
Escape 2013 Borderline

Hard Rain 1997 Hard Rain [Japan 1st Press, Promo]
Hard Rain 1999 When The Good Times Come

Magnum 1978 Kingdom Of Madness [Japanese Ed. 2006] 2CD
Magnum 1979 Magnum II [Japanese Ed. 2006]
Magnum 1980 Marauder [Japanese Ed. 2006]
Magnum 1982 Chase The Dragon [Japanese Ed. 2006]
Magnum 1983 The Eleventh Hour!
Magnum 1983 The Eleventh Hour! [Japanese Ed. 2006]
Magnum 1985 On A Storyteller's Night
Magnum 1985 On A Storyteller's Night [Japanese Ed. 2006] 2CD
Magnum 1986 Vigilante
Magnum 1986 Anthology
Magnum 1988 Wings Of Heaven [Germany 1st Press]
Magnum 1990 Goodnight L.A.
Magnum 1990 Goodnight L.A. [Japan 1st Press]
Magnum 1993 Chapter & Verse: The Very Best Of Magnum
Magnum 1994 Rock Art
Magnum 2002 Breath Of Life [Japanese Ed.] 2CD
Magnum 2005 Livin' The Dream 1978 - 2005 [2xDVD[/url]
Magnum 2007 Princess Alice And The Broken Arrow [Japanese Ed.]
Magnum 2012 On The 13th Day [2CD]
Magnum 2014 Escape From The Shadow Garden [Digipak Ed.] CD+DVD
Magnum 2014 Escape From The Shadow Garden [Japanese Ed.] 2CD

Pulse 2002 Pulse
Pulse 2004 Worlds Apart

Ten 2012 Heresy And Creed [Japanese Ed.]
Ten 2014 Albion [Japanese Ed.]