Subcategories

Magnum - On A Storyteller's Night (1985) [Japanese Ed. 2006] 2CD Re-up

Posted By: Andi_Deris
Magnum - On A Storyteller's Night (1985) [Japanese Ed. 2006] 2CD Re-up

Magnum - On A Storyteller's Night (1985) [Japanese Ed. 2006] 2CD
EAC Rip | FLAC: Image+Cue+Log | 746 Mb | MP3 CBR 320 kbps | 280 Mb | Scans | TTime: 01:45:59
Melodic Rock, Progressive/Art Rock | Arcangelo | ARC-7164/65

’On a Storyteller's Night’ is the fifth studio album by British melodic rock band Magnum, released in 1985 on FM Records. The album is widely considered as Magnum's breakthrough album. This album features one of the Tony Clarkin's most thoughtful songs, "Les Morts Dansant" - a simple song in that paints a picture of a man being executed by a firing squad. It is the way in which the song accomplishes this, with some very colorful and imaginative metaphors. The song was covered in 1987 by American singer Patty Smyth of the band Scandal on her first solo album Never Enough, but because of its French title the song was retitled "Call To Heaven".

Magnum - On A Storyteller's Night (1985) [Japanese Ed. 2006] 2CD Re-up




Magnum - On A Storyteller's Night (1985) [Japanese Ed. 2006] 2CD Re-up


Disc 1

01. How Far Jerusalem (6:25)
02. Just Like An Arrow (3:22)
03. On A Storyteller's Night (4:59)
04. Before First Light (3:52)
05. Les Morts Dansants (5:47)
06. Endless Love (4:29)
07. Two Hearts (4:24)
08. Steal Your Heart (3:59)
09. All England's Eyes (4:47)
10. The Last Dance (3:41)

Magnum - On A Storyteller's Night (1985) [Japanese Ed. 2006] 2CD Re-up


Disc 2
-Bonus Demo Tracks-

01. How Far Jerusalem (5:45)
02. Endless Love (3:50)
03. Before First Light (4:26)
04. All England's Eyes (4:50)
05. Come On Young Love (#1) (3:47)
06. Come On Young Love (#2) (3:30)
07. Les Mort Dansant (P.K.A. Cannon) (5:09)
08. The Last Dance (4:08)
09. Interview (24:49)

Produced by Kit Woolven

The Band

• Bob Catley - Lead Vocals
• Tony Clarkin - All Guitars & Backing Vocals
• Jim Simpson - Drums & Percussion
• Mark Stanway - Keyboards
• Wally Lowe - Bass & Backing Vocals

*****
• Mo Birch - Backing Vocals (on "Les Mort Dansant")
• Kex Gorin - Drums (on Disc 2, 1, 3 - 5, 8)

Exact Audio Copy V1.0 beta 3 from 29. August 2011

Отчёт EAC об извлечении, выполненном 22. января 2012, 11:18

Magnum / On a Storyteller's Night

Дисковод: TSSTcorpCDDVDW TS-L633J Adapter: 0 ID: 1

Режим чтения : Достоверность
Использование точного потока : Да
Отключение кэша аудио : Да
Использование указателей C2 : Нет

Коррекция смещения при чтении : 6
Способность читать области Lead-in и Lead-out : Нет
Заполнение пропущенных сэмплов тишиной : Да
Удаление блоков с тишиной в начале и конце : Нет
При вычислениях CRC использовались нулевые сэмплы : Да
Интерфейс : Установленный внешний ASPI-интерфейс

Выходной формат : Пользовательский кодировщик
Выбранный битрейт : 128 kBit/s
Качество : Высокий
Добавление ID3-тега : Нет
Утилита сжатия : C:\Program Files\Exact Audio Copy\FLAC\FLAC.EXE
Дополнительные параметры : -6 -V -T "ARTIST=%artist%" -T "TITLE=%title%" -T "ALBUM=%albumtitle%" -T "DATE=%year%" -T "TRACKNUMBER=%tracknr%" -T "GENRE=%genre%" -T "COMMENT=%comment%" -T "BAND=%albuminterpret%" -T "ALBUMARTIST=%albuminterpret%" -T "COMPOSER=%composer%" %haslyrics%–tag-from-file=LYRICS="%lyricsfile%"%haslyrics% -T "DISCNUMBER=%cdnumber%" -T "TOTALDISCS=%totalcds%" -T "TOTALTRACKS=%numtracks%" %hascover%–picture="%coverfile%"%hascover% %source% -o %dest%


TOC извлечённого CD

Трек | Старт | Длительность | Начальный сектор | Конечный сектор
––––––––––––––––––––––––––––––––––-
1 | 0:00.00 | 6:25.38 | 0 | 28912
2 | 6:25.38 | 3:22.33 | 28913 | 44095
3 | 9:47.71 | 4:59.69 | 44096 | 66589
4 | 14:47.65 | 3:52.38 | 66590 | 84027
5 | 18:40.28 | 5:47.57 | 84028 | 110109
6 | 24:28.10 | 4:29.69 | 110110 | 130353
7 | 28:58.04 | 4:24.13 | 130354 | 150166
8 | 33:22.17 | 3:59.09 | 150167 | 168100
9 | 37:21.26 | 4:47.02 | 168101 | 189627
10 | 42:08.28 | 3:41.62 | 189628 | 206264


Характеристики диапазона извлечения и сообщения об ошибках

Выбранный диапазон

Имя файла C:\MAGNUM\Magnum - On a Storyteller's Night.wav

Пиковый уровень 100.0 %
Скорость извлечения 2.8 X
Качество диапазона 100.0 %
CRC теста 82048060
CRC копии 82048060
Копирование… OK

Ошибок не произошло


AccurateRip: сводка

Трек 1 отсутствует в базе данных
Трек 2 отсутствует в базе данных
Трек 3 отсутствует в базе данных
Трек 4 отсутствует в базе данных
Трек 5 отсутствует в базе данных
Трек 6 отсутствует в базе данных
Трек 7 отсутствует в базе данных
Трек 8 отсутствует в базе данных
Трек 9 отсутствует в базе данных
Трек 10 отсутствует в базе данных

Ни одного трека нет в базе AccurateRip

Конец отчёта

–– CUETools DB Plugin V2.1.3

[CTDB TOCID: ZaZx9kk2F2CSSEBIyz8eh9c7ft0-] disk not present in database, Submit result: ZaZx9kk2F2CSSEBIyz8eh9c7ft0- has been uploaded


==== Контрольная сумма отчёта D60C4C83F18B9EDA5E5B8B453F1B6C74DB3A629D59B2B2C268476618937C0958 ====

Exact Audio Copy V1.0 beta 3 from 29. August 2011

Отчёт EAC об извлечении, выполненном 22. января 2012, 11:59

Magnum (3) / On A Storyteller's Night (20th Anniversary Expanded Edition)

Дисковод: TSSTcorpCDDVDW TS-L633J Adapter: 0 ID: 1

Режим чтения : Достоверность
Использование точного потока : Да
Отключение кэша аудио : Да
Использование указателей C2 : Нет

Коррекция смещения при чтении : 6
Способность читать области Lead-in и Lead-out : Нет
Заполнение пропущенных сэмплов тишиной : Да
Удаление блоков с тишиной в начале и конце : Нет
При вычислениях CRC использовались нулевые сэмплы : Да
Интерфейс : Установленный внешний ASPI-интерфейс

Выходной формат : Пользовательский кодировщик
Выбранный битрейт : 128 kBit/s
Качество : Высокий
Добавление ID3-тега : Нет
Утилита сжатия : C:\Program Files\Exact Audio Copy\FLAC\FLAC.EXE
Дополнительные параметры : -6 -V -T "ARTIST=%artist%" -T "TITLE=%title%" -T "ALBUM=%albumtitle%" -T "DATE=%year%" -T "TRACKNUMBER=%tracknr%" -T "GENRE=%genre%" -T "COMMENT=%comment%" -T "BAND=%albuminterpret%" -T "ALBUMARTIST=%albuminterpret%" -T "COMPOSER=%composer%" %haslyrics%–tag-from-file=LYRICS="%lyricsfile%"%haslyrics% -T "DISCNUMBER=%cdnumber%" -T "TOTALDISCS=%totalcds%" -T "TOTALTRACKS=%numtracks%" %hascover%–picture="%coverfile%"%hascover% %source% -o %dest%


TOC извлечённого CD

Трек | Старт | Длительность | Начальный сектор | Конечный сектор
––––––––––––––––––––––––––––––––––-
1 | 0:00.00 | 5:45.44 | 0 | 25918
2 | 5:45.44 | 3:50.09 | 25919 | 43177
3 | 9:35.53 | 4:26.09 | 43178 | 63136
4 | 14:01.62 | 4:50.31 | 63137 | 84917
5 | 18:52.18 | 3:47.67 | 84918 | 102009
6 | 22:40.10 | 3:30.73 | 102010 | 117832
7 | 26:11.08 | 5:09.26 | 117833 | 141033
8 | 31:20.34 | 4:08.21 | 141034 | 159654
9 | 35:28.55 | 24:49.35 | 159655 | 271364


Характеристики диапазона извлечения и сообщения об ошибках

Выбранный диапазон

Имя файла C:\MAGNUM\CD2\Magnum (3) - On A Storyteller's Night (20th Anniversary Expanded Edition).wav

Пиковый уровень 99.6 %
Скорость извлечения 3.3 X
Качество диапазона 100.0 %
CRC теста E6AB0ADB
CRC копии E6AB0ADB
Копирование… OK

Ошибок не произошло


AccurateRip: сводка

Трек 1 отсутствует в базе данных
Трек 2 отсутствует в базе данных
Трек 3 отсутствует в базе данных
Трек 4 отсутствует в базе данных
Трек 5 отсутствует в базе данных
Трек 6 отсутствует в базе данных
Трек 7 отсутствует в базе данных
Трек 8 отсутствует в базе данных
Трек 9 отсутствует в базе данных

Ни одного трека нет в базе AccurateRip

Конец отчёта

–– CUETools DB Plugin V2.1.3

[CTDB TOCID: 2MwTRe8DgmGlU473fSISePmTSuo-] disk not present in database, Submit result: 2MwTRe8DgmGlU473fSISePmTSuo- has been uploaded


==== Контрольная сумма отчёта 5C5FC5A1131E8A3F05693502A23F0DEAB49D47474C7ED6881721C4FC5D9F9892 ====


Many thanks to the original uploader: reverse77777

–––––––––
Nitroflare