Subcategories

Mahler: Symphony no. 5 in C sharp minor - Wiener Philharmoniker; Lorin Maazel

Posted By: waldstein
Mahler: Symphony no. 5 in C sharp minor - Wiener Philharmoniker; Lorin Maazel

Gustav Mahler: Symphony No. 5 in C sharp minor – Wiener Philharmoniker; Lorin Maazel, conductor
Classical | 1 CD | EAC Rip | 297 Mb | FLAC+LOG+Cue | Full scans | RS and 4share links
Publisher: Sony Classical
Mahler: Symphony no. 5 in C sharp minor - Wiener Philharmoniker; Lorin Maazel

Contrary to his recording of Symphony no. 4, Maazel’s recording of Mahler’s Symphony No. 5 get divided reviews. My opinion is pretty much like this one from Amazon.com:
This is one of the best Mahler 5 recordings I have heard. The Vienna Philharmonic sounds absolutely fabulous. Maazel's has recorded the whole Mahler cycle with Vienna. The performance of Mahler 4 has become very well known. The Mahler 5 seems to be not as popular. This might be because Bernstein also recorded a great live version with Vienna as well. Maazel's interpretation of the piece is very balanced and clear. Maazel brings to me what is a slightly more clear approach to this music, but still with great climaxes. I really like the opening movement and the third movement scherzo. The balance between all the sections is really amazing. You can hear every entrance and every voice. This is a triumph of the players and to the Sony recording engineers. I would highly recommend this Mahler recording to anyone.
Exact Audio Copy V0.99 prebeta 4 from 23. January 2008

EAC extraction logfile from 21. December 2009, 10:53

Mahler, Gustav / Gustav Mahler: Symphony No 5 in C sharp minor

Used drive : HL-DT-STDVDRAM GSA-4167B Adapter: 3 ID: 0

Read mode : Secure
Utilize accurate stream : Yes
Defeat audio cache : No
Make use of C2 pointers : No

Read offset correction : 667
Overread into Lead-In and Lead-Out : No
Fill up missing offset samples with silence : No
Delete leading and trailing silent blocks : No
Null samples used in CRC calculations : No
Used interface : Native Win32 interface for Win NT & 2000

Used output format : User Defined Encoder
Selected bitrate : 320 kBit/s
Quality : High
Add ID3 tag : No
Command line compressor : C:\Program Files\Exact Audio Copy\FLAC\FLAC.EXE
Additional command line options : -6 -V -T "ARTIST=%a" -T "TITLE=%t" -T "ALBUM=%g" -T "DATE=%y" -T "TRACKNUMBER=%n" -T "GENRE=%m" -T "COMMENT=%e" %s -o %d


TOC of the extracted CD

Track | Start | Length | Start sector | End sector
––––––––––––––––––––––––––––-
1 | 0:00.00 | 5:50.70 | 0 | 26319
2 | 5:50.70 | 2:13.20 | 26320 | 36314
3 | 8:04.15 | 6:00.17 | 36315 | 63331
4 | 14:04.32 | 4:30.53 | 63332 | 83634
5 | 18:35.10 | 5:47.65 | 83635 | 109724
6 | 24:23.00 | 4:45.10 | 109725 | 131109
7 | 29:08.10 | 2:29.35 | 131110 | 142319
8 | 31:37.45 | 4:22.37 | 142320 | 162006
9 | 36:00.07 | 4:02.70 | 162007 | 180226
10 | 40:03.02 | 4:09.15 | 180227 | 198916
11 | 44:12.17 | 2:30.60 | 198917 | 210226
12 | 46:43.02 | 10:31.18 | 210227 | 257569
13 | 57:14.20 | 8:13.47 | 257570 | 294591
14 | 65:27.67 | 3:38.38 | 294592 | 310979
15 | 69:06.30 | 3:19.27 | 310980 | 325931


Range status and errors

Selected range

Filename L:\My Documents\My Music\Mahler\Maazel\Symphony No 5\Mahler, Gustav - Gustav Mahler Symphony No 5 in C sharp minor.wav

Peak level 100.0 %
Range quality 100.0 %
Test CRC 519129FA
Copy CRC 519129FA
Copy OK

No errors occurred

End of status report

Rapidshare links:
LINK1 | LINK2 | SCANS
4shared links:
LINK1 | LINK2 | SCANS
password: gustav
No mirrors, please