Subcategories

Malia - Ripples (Echoes Of Dreams) (2018) {Limited Edition}

Posted By: popsakov
Malia - Ripples (Echoes Of Dreams) (2018) {Limited Edition}

Malia - Ripples (Echoes Of Dreams) (2018) {Limited Edition}
EAC Rip | FLAC (Img) + Cue + Log ~ 284 Mb | MP3 CBR320 ~ 127 Mb
Full Scans ~ 82 Mb | 00:52:38 | RAR 5% Recovery
Vocal Jazz, Neo Soul | MPS Records / Edel #0212739MS1

Maybe you can't hold on to a dream, but dreams can trigger strong emotional cross-currents. And so it was for singer Malia on her popular, long-lived Echoes of Dreams .Released in 2004, the songs on that album form the basis for her new recording, Ripples . It is not a remake in the normal sense; rather, these emotive ebbs and flows are direct links to this British-African artist's highly emotional acknowledgement of her roots. Accompanied by pianist Alexandre Saada's sensitive play and his arrangements for the string trio, Malia has radically stripped down her original work, moving from the playful pop-jazz style of her earlier career towards a raw, blues and soul-drenched sound that, more than ever,relies on the strength and passion of her voice. Malia reflects on the motivations behind once again sounding the echoes of her dreams: Sometimes life gives you a chance to realign. I feel that I often have a better understanding of my lyrics today than when I wrote them. With the experiences I've lived through, including the hard times, I've had a strong inner desire to re-work the songs. After six stylishly eclectic albums, Malia's re-worked songs on Ripples reveal an artist who lays down new challenges for her listeners. At the same time, there's the dividend of the album's poignant authenticity. Whereas the Echos of Dreams sessions were distinguished by the desire to experiment with soulful vocal parts, whiffs of jazz, and rocktinged rhythms, Malia has reversed course on Ripples . Recording the album in pianist Alexandre Saada's Paris home, Malia emphasizes, I wanted to tone everything down in order to push the essential core of the pieces into the foreground.

***************

Track List:

01. Unfastened [3:17]
02. Maddy [2:34]
03. Little Darling [3:28]
04. After The Love [2:38]
05. Echoes Of Dreams [4:07]
06. Little Bee [4:04]
07. Little Sparrow [2:46]
08. Mary Mary [5:00]
09. My Love [3:58]
10. Unfolding [4:56]
11. Man In Your Eyes [3:56]
12. I Miss You [4:07]
13. Imagine [3:29]
14. The First Time Ever I Saw Your Face [4:20]

Exact Audio Copy V1.3 from 2. September 2016

Отчёт EAC об извлечении, выполненном 14. февраля 2020, 20:09

Malia / Ripples (Echoes of Dreams)

Дисковод: PLEXTOR DVDR PX-755A Adapter: 1 ID: 1

Режим чтения : Достоверность
Использование точного потока : Да
Отключение кэша аудио : Да
Использование указателей C2 : Нет

Коррекция смещения при чтении : 30
Способность читать области Lead-in и Lead-out : Нет
Заполнение пропущенных сэмплов тишиной : Да
Удаление блоков с тишиной в начале и конце : Нет
При вычислениях CRC использовались нулевые сэмплы : Да
Интерфейс : Встроенный Win32-интерфейс для Win NT/2000

Выходной формат : Пользовательский кодировщик
Выбранный битрейт : 128 kBit/s
Качество : Высокий
Добавление ID3-тега : Нет
Утилита сжатия : C:\Program Files (x86)\Exact Audio Copy\Flac\flac.exe
Дополнительные параметры : -V -8 -T "Date=%year%" -T "Genre=%genre%" %source%


TOC извлечённого CD

Трек | Старт | Длительность | Начальный сектор | Конечный сектор
––––––––––––––––––––––––––––––––––-
1 | 0:00.00 | 3:16.50 | 0 | 14749
2 | 3:16.50 | 2:34.15 | 14750 | 26314
3 | 5:50.65 | 3:28.30 | 26315 | 41944
4 | 9:19.20 | 2:37.42 | 41945 | 53761
5 | 11:56.62 | 4:06.66 | 53762 | 72277
6 | 16:03.53 | 4:03.55 | 72278 | 90557
7 | 20:07.33 | 2:46.10 | 90558 | 103017
8 | 22:53.43 | 5:00.15 | 103018 | 125532
9 | 27:53.58 | 3:57.42 | 125533 | 143349
10 | 31:51.25 | 4:56.07 | 143350 | 165556
11 | 36:47.32 | 3:55.38 | 165557 | 183219
12 | 40:42.70 | 4:06.48 | 183220 | 201717
13 | 44:49.43 | 3:28.45 | 201718 | 217362
14 | 48:18.13 | 4:19.68 | 217363 | 236855


Характеристики диапазона извлечения и сообщения об ошибках

Выбранный диапазон

Имя файла D:\РАЗДАЧА\Malia - Ripples (Echoes of Dreams) - 2018\Malia - Ripples (Echoes of Dreams).wav

Пиковый уровень 98.6 %
Скорость извлечения 8.1 X
Качество диапазона 100.0 %
CRC теста 80A96468
CRC копии 80A96468
Копирование… OK

Ошибок не произошло


AccurateRip: сводка

Трек 1 : извлечено точно (доверие 17) [0EB1B661] (AR v2)
Трек 2 : извлечено точно (доверие 17) [5C4448A0] (AR v2)
Трек 3 : извлечено точно (доверие 17) [05EBAFD2] (AR v2)
Трек 4 : извлечено точно (доверие 17) [0B3A0709] (AR v2)
Трек 5 : извлечено точно (доверие 17) [CF530D80] (AR v2)
Трек 6 : извлечено точно (доверие 17) [24F18F12] (AR v2)
Трек 7 : извлечено точно (доверие 17) [639388FC] (AR v2)
Трек 8 : извлечено точно (доверие 17) [28216D2D] (AR v2)
Трек 9 : извлечено точно (доверие 17) [E3997570] (AR v2)
Трек 10 : извлечено точно (доверие 17) [DFB00EBA] (AR v2)
Трек 11 : извлечено точно (доверие 17) [167A4E30] (AR v2)
Трек 12 : извлечено точно (доверие 17) [63B77538] (AR v2)
Трек 13 : извлечено точно (доверие 17) [F5FD6C87] (AR v2)
Трек 14 : извлечено точно (доверие 17) [A855C506] (AR v2)

Все треки извлечены точно

Конец отчёта

–– CUETools DB Plugin V2.1.6

[CTDB TOCID: XV31s5rHV7SZaF4zr9l2YUmXuZc-] found
Submit result: XV31s5rHV7SZaF4zr9l2YUmXuZc- has been confirmed
Track | CTDB Status
1 | (67/67) Accurately ripped
2 | (67/67) Accurately ripped
3 | (67/67) Accurately ripped
4 | (67/67) Accurately ripped
5 | (67/67) Accurately ripped
6 | (67/67) Accurately ripped
7 | (67/67) Accurately ripped
8 | (67/67) Accurately ripped
9 | (67/67) Accurately ripped
10 | (67/67) Accurately ripped
11 | (67/67) Accurately ripped
12 | (67/67) Accurately ripped
13 | (67/67) Accurately ripped
14 | (67/67) Accurately ripped


==== Контрольная сумма отчёта E803955DC13B64E912A069D71F8CDA855BFCDDEA57D901FABD23298F2993988B ====

foobar2000 1.4 / Dynamic Range Meter 1.1.1
log date: 2020-02-15 03:17:22

––––––––––––––––––––––––––––––––––––––––
Analyzed: Malia / Ripples (Echoes of Dreams)
––––––––––––––––––––––––––––––––––––––––

DR Peak RMS Duration Track
––––––––––––––––––––––––––––––––––––––––
DR9 -0.12 dB -13.09 dB 3:17 01-Unfastened
DR10 -0.12 dB -11.55 dB 2:34 02-Maddy
DR9 -0.12 dB -12.00 dB 3:28 03-Little Darling
DR9 -0.12 dB -11.36 dB 2:38 04-After The Love
DR10 -0.12 dB -13.91 dB 4:07 05-Echoes Of Dreams
DR9 -0.12 dB -12.33 dB 4:04 06-Little Bee
DR10 -0.12 dB -12.47 dB 2:46 07-Little Sparrow
DR11 -0.12 dB -14.50 dB 5:00 08-Mary Mary
DR10 -0.12 dB -13.20 dB 3:58 09-My Love
DR11 -0.12 dB -13.57 dB 4:56 10-Unfolding
DR10 -0.12 dB -12.73 dB 3:56 11-Man In Your Eyes
DR9 -0.12 dB -13.12 dB 4:07 12-I Miss You
DR11 -0.13 dB -14.05 dB 3:29 13-Imagine
DR11 -0.12 dB -13.14 dB 4:20 14-The First Time Ever I Saw Your Face
––––––––––––––––––––––––––––––––––––––––

Number of tracks: 14
Official DR value: DR10

Samplerate: 44100 Hz
Channels: 2
Bits per sample: 16
Bitrate: 717 kbps
Codec: FLAC
================================================================================

[CUETools log; Date: 15.02.2020 3:17:26; Version: 2.1.6]
[CTDB TOCID: XV31s5rHV7SZaF4zr9l2YUmXuZc-] found.
Track | CTDB Status
1 | (68/68) Accurately ripped
2 | (68/68) Accurately ripped
3 | (68/68) Accurately ripped
4 | (68/68) Accurately ripped
5 | (68/68) Accurately ripped
6 | (68/68) Accurately ripped
7 | (68/68) Accurately ripped
8 | (68/68) Accurately ripped
9 | (68/68) Accurately ripped
10 | (68/68) Accurately ripped
11 | (68/68) Accurately ripped
12 | (68/68) Accurately ripped
13 | (68/68) Accurately ripped
14 | (68/68) Accurately ripped
[AccurateRip ID: 001993bf-01164a7a-c30c560e] found.
Track [ CRC | V2 ] Status
01 [2145a3a9|0eb1b661] (00+17/17) Accurately ripped
02 [e15a94d2|5c4448a0] (00+17/17) Accurately ripped
03 [b6a2260a|05ebafd2] (00+17/17) Accurately ripped
04 [ef373f29|0b3a0709] (00+17/17) Accurately ripped
05 [cdbf85a7|cf530d80] (00+17/17) Accurately ripped
06 [16304981|24f18f12] (00+17/17) Accurately ripped
07 [8e5a714b|639388fc] (00+17/17) Accurately ripped
08 [662afa5e|28216d2d] (00+17/17) Accurately ripped
09 [6ecfd0b8|e3997570] (00+17/17) Accurately ripped
10 [7a6dd397|dfb00eba] (00+17/17) Accurately ripped
11 [fbf0ed3c|167a4e30] (00+17/17) Accurately ripped
12 [9752375e|63b77538] (00+17/17) Accurately ripped
13 [a9b4c337|f5fd6c87] (00+17/17) Accurately ripped
14 [0275a9dd|a855c506] (00+17/17) Accurately ripped

Track Peak [ CRC32 ] [W/O NULL] [ LOG ]
– 98,6 [80A96468] [436AE5A7] CRC32
01 98,6 [E9E55062] [95EE2A34]
02 98,6 [0D34D098] [99227722]
03 98,6 [A1501290] [95FE01F0]
04 98,6 [13B7DD5F] [6FCA83E6]
05 98,6 [0908187A] [C99BDF65]
06 98,6 [568E5209] [0E408A75]
07 98,6 [2EF64E2C] [12B3C5AA]
08 98,6 [12D4D8AB] [AFE63259]
09 98,6 [74C63419] [6970B4A9]
10 98,6 [8B960ABD] [BA1AEFBF]
11 98,6 [810EE2DC] [42F28914]
12 98,6 [4081596F] [E6F987CA]
13 98,5 [05645106] [40DC7046]
14 98,6 [72DCD17B] [916C0094]

All thanks go to pishin

>>> My Blog <<<

DOWNLOAD: