Subcategories

Mamont - Passing Through The Mastery Door (2013)

Posted By: Necromandus
Mamont - Passing Through The Mastery Door (2013)

Mamont - Passing Through The Mastery Door (2013)
EAC Rip | FLAC, IMG+CUE+LOG | 330 MB | MP3 CBR 320 Kbps | 110 MB | Complete HQ Scans | PNG -> 30 MB
Doom/Stoner/Psychedelic | Label: Ozium Records #002 | RAR 3% Rec. | IcerBox.com

Where their previous demo had given some hint of a retro ‘70s influence, the debut full-length from Nyköping, Sweden, four-piece Mamont is more thickly, densely fuzzed. Passing through the Mastery Door is a fairly ambitious title for an act making their debut, but the Ozium Records release is accordingly sure of itself and of its aesthetic, culling influence both from the ‘90s stoner rock heyday and the natural, laid-back vibing of modern European heavy psych
Tracklist :

1. Mammuten - 4:50
2. Jag Sar Ett Fro - 5:32
3. Creatures - 6:40
4. Blind Man (Part III) - 6:19
5. Stonehill Universe - 4:41
6. The Secret Of The Owl - 5:10
7. Woods - 2:54
8. Satans Fasoner - 6:25

Exact Audio Copy V1.3 from 2. September 2016

EAC extraction logfile from 11. August 2017, 10:23

Mamont / Passing Through The Mastery Door

Used drive : TSSTcorpCDDVDW SH-S223F Adapter: 1 ID: 0

Read mode : Secure
Utilize accurate stream : Yes
Defeat audio cache : Yes
Make use of C2 pointers : No

Read offset correction : 6
Overread into Lead-In and Lead-Out : No
Fill up missing offset samples with silence : Yes
Delete leading and trailing silent blocks : No
Null samples used in CRC calculations : Yes
Used interface : Native Win32 interface for Win NT & 2000

Used output format : Internal WAV Routines
Sample format : 44.100 Hz; 16 Bit; Stereo


TOC of the extracted CD

Track | Start | Length | Start sector | End sector
––––––––––––––––––––––––––––-
1 | 0:00.00 | 4:50.14 | 0 | 21763
2 | 4:50.14 | 5:32.11 | 21764 | 46674
3 | 10:22.25 | 6:40.09 | 46675 | 76683
4 | 17:02.34 | 6:18.52 | 76684 | 105085
5 | 23:21.11 | 4:40.51 | 105086 | 126136
6 | 28:01.62 | 5:10.18 | 126137 | 149404
7 | 33:12.05 | 2:54.35 | 149405 | 162489
8 | 36:06.40 | 6:25.15 | 162490 | 191379


Range status and errors

Selected range

Filename Z:\by Necromandus\Mamont - Passing Through The Mastery Door.wav

Peak level 99.7 %
Extraction speed 2.7 X
Range quality 99.9 %
Test CRC 47D702A2
Copy CRC 47D702A2
Copy OK

No errors occurred


AccurateRip summary

Track 1 accurately ripped (confidence 5) [F2A237A7] (AR v2)
Track 2 accurately ripped (confidence 5) [4C10F8BF] (AR v2)
Track 3 accurately ripped (confidence 5) [2BC838FC] (AR v2)
Track 4 accurately ripped (confidence 5) [84E1A12A] (AR v2)
Track 5 accurately ripped (confidence 5) [7B4C859B] (AR v2)
Track 6 accurately ripped (confidence 5) [966C9D25] (AR v2)
Track 7 accurately ripped (confidence 5) [2BA74192] (AR v2)
Track 8 accurately ripped (confidence 4) [6A90D715] (AR v2)

All tracks accurately ripped

End of status report

–– CUETools DB Plugin V2.1.6

[CTDB TOCID: bbaZFLlwB2r4xOuoTsmtca58Vp4-] found
Submit result: bbaZFLlwB2r4xOuoTsmtca58Vp4- has been confirmed
Track | CTDB Status
1 | (5/5) Accurately ripped
2 | (5/5) Accurately ripped
3 | (5/5) Accurately ripped
4 | (5/5) Accurately ripped
5 | (5/5) Accurately ripped
6 | (5/5) Accurately ripped
7 | (5/5) Accurately ripped
8 | (4/5) Accurately ripped


==== Log checksum B6B9FB4DF5B169BE72C7429F3AA0F1F45C5687633B41915680B486C2CB58BE04 ====