Subcategories

Manal - Manal (1973) [Reissue 2005]

Posted By: gribovar
Manal - Manal (1973) [Reissue 2005]

Manal - Manal (1973) [Reissue 2005]
EAC Rip | FLAC (image+.cue+log) - 372 MB | MP3 CBR 320 kbps (LAME 3.93) - 150 MB | Covers (6 MB) included
Genre: Psychedelic Rock, Blues Rock | RAR 3% Rec. | Label: Columbia/Sony Music (2-493890)

Manal were an early argentine rock group, one of the three along with Almendra and Los Gatos dubbed the fouding trilogy of rock in that country. Whereas Almendra brought an Argentine identity to the sound and Los Gatos the electric guitar, influenced by Cream Manal brought the blues to Argentina's rock conscience.
In 1973 an excellent double LP set was released featuring the first Mandioca album, all Mandioca singles and unreleased tracks. It was given the innovative title… Manal (better known as "Manal double album").
CD 1 Tracklist:
01. Avellaneda Blues
02. Casa con 10 Pinos
03. Informe de un Diá
04. No Pibe
05. El Leoncito
06. Para ser un Hombre más

Total time: 29:33

CD 2 Tracklist:
01. Jugo de Tomate
02. Porque Hoy Naci
03. Avda Rivadavia
04. Todo el Día me Pregunto
05. Blues de la Amenaza Nocturna
06. Necesito un Amor
07. Qué Pena me Das

Total time: 31:53

Exact Audio Copy V0.99 prebeta 4 from 23. January 2008

EAC extraction logfile from 26. February 2008, 9:57

Manal / Manal (disc 1)

Used drive : LITE-ON DVDRW LH-20A1P Adapter: 0 ID: 2

Read mode : Secure
Utilize accurate stream : Yes
Defeat audio cache : Yes
Make use of C2 pointers : No

Read offset correction : 6
Overread into Lead-In and Lead-Out : No
Fill up missing offset samples with silence : Yes
Delete leading and trailing silent blocks : No
Null samples used in CRC calculations : Yes
Used interface : Installed external ASPI interface

Used output format : Internal WAV Routines
Sample format : 44.100 Hz; 16 Bit; Stereo


TOC of the extracted CD

Track | Start | Length | Start sector | End sector
––––––––––––––––––––––––––––-
1 | 0:00.00 | 5:36.57 | 0 | 25256
2 | 5:36.57 | 4:17.41 | 25257 | 44572
3 | 9:54.23 | 8:03.70 | 44573 | 80867
4 | 17:58.18 | 3:52.67 | 80868 | 98334
5 | 21:51.10 | 3:31.62 | 98335 | 114221
6 | 25:22.72 | 4:09.55 | 114222 | 132951


Range status and errors

Selected range

Filename D:\flogger77\Manal - Manal (disc 1).wav

Peak level 100.0 %
Range quality 100.0 %
Copy CRC DBB5A741
Copy OK

No errors occurred


AccurateRip summary

Track 1 not present in database
Track 2 not present in database
Track 3 not present in database
Track 4 not present in database
Track 5 not present in database
Track 6 not present in database

None of the tracks are present in the AccurateRip database

End of status report

[CUETools log; Date: 18.11.2019 17:58:49; Version: 2.1.4]
[CTDB TOCID: f14ABHJBJ.il31y8aIpIWhmqR3Q-] found.
Track | CTDB Status
1 | (2/2) Accurately ripped
2 | (2/2) Accurately ripped
3 | (2/2) Accurately ripped
4 | (2/2) Accurately ripped
5 | (2/2) Accurately ripped
6 | (2/2) Accurately ripped
[AccurateRip ID: 0007924f-0027e851-4106ec06] disk not present in database.

Track Peak [ CRC32 ] [W/O NULL] [ LOG ]
– 100,0 [DBB5A741] [0DC7997D] CRC32
01 100,0 [6FE5AA54] [9AF7B057]
02 100,0 [F5CFC3C4] [E2126067]
03 80,5 [0C3C4E6C] [AF91ECD0]
04 92,7 [B5C1AE4F] [A3E54F34]
05 99,9 [0CFA776D] [8140FFFD]
06 87,4 [2682F860] [B84A28DB]

Exact Audio Copy V0.99 prebeta 4 from 23. January 2008

EAC extraction logfile from 26. February 2008, 10:18

Manal / Manal (disc 2)

Used drive : LITE-ON DVDRW LH-20A1P Adapter: 0 ID: 2

Read mode : Secure
Utilize accurate stream : Yes
Defeat audio cache : Yes
Make use of C2 pointers : No

Read offset correction : 6
Overread into Lead-In and Lead-Out : No
Fill up missing offset samples with silence : Yes
Delete leading and trailing silent blocks : No
Null samples used in CRC calculations : Yes
Used interface : Installed external ASPI interface

Used output format : Internal WAV Routines
Sample format : 44.100 Hz; 16 Bit; Stereo


TOC of the extracted CD

Track | Start | Length | Start sector | End sector
––––––––––––––––––––––––––––-
1 | 0:00.00 | 2:49.38 | 0 | 12712
2 | 2:49.38 | 4:30.11 | 12713 | 32973
3 | 7:19.49 | 2:54.16 | 32974 | 46039
4 | 10:13.65 | 6:06.45 | 46040 | 73534
5 | 16:20.35 | 5:53.31 | 73535 | 100040
6 | 22:13.66 | 3:29.08 | 100041 | 115723
7 | 25:42.74 | 6:09.58 | 115724 | 143456


Range status and errors

Selected range

Filename D:\flogger77\Manal - Manal (disc 2).wav

Peak level 100.0 %
Range quality 100.0 %
Copy CRC 6902359E
Copy OK

No errors occurred


AccurateRip summary

Track 1 not present in database
Track 2 not present in database
Track 3 not present in database
Track 4 not present in database
Track 5 not present in database
Track 6 not present in database
Track 7 not present in database

None of the tracks are present in the AccurateRip database

End of status report

[CUETools log; Date: 18.11.2019 17:59:09; Version: 2.1.4]
[CTDB TOCID: hVFQsU5l2wdm3qFdMAYSmejZEp4-] found.
Track | CTDB Status
1 | (2/2) Accurately ripped
2 | (2/2) Accurately ripped
3 | (2/2) Accurately ripped
4 | (2/2) Accurately ripped
5 | (2/2) Accurately ripped
6 | (2/2) Accurately ripped
7 | (2/2) Accurately ripped
[AccurateRip ID: 000800c4-0031596a-4d077807] disk not present in database.

Track Peak [ CRC32 ] [W/O NULL] [ LOG ]
– 100,0 [6902359E] [C9031C87] CRC32
01 100,0 [E414D688] [6B44164C]
02 75,4 [187A1EE1] [5CC16F77]
03 96,3 [765640C9] [C21105E5]
04 92,8 [06822E11] [EDFB2564]
05 94,1 [9A483433] [0C97F258]
06 96,5 [3CFFB83D] [B2630703]
07 88,8 [7C84C6AF] [2C24D0F7]

Thanks to flogger77