Subcategories

Manfred Mann Chapter Three - Manfred Mann Chapter Three `69 & Volume Two `70 (2004)

Posted By: v3122
Manfred Mann Chapter Three - Manfred Mann Chapter Three `69 & Volume Two `70 (2004)

Manfred Mann Chapter Three - Manfred Mann Chapter Three `69 & Volume Two `70 (2004)
EAC | Flac(Image) + Cue + Log & MP3 CBR 320Kbps
2CD | Air Mail Archive | Japan | ~ 729 or 303 Mb | Scans(jpg) -> 105 Mb
Rock / Jazz Rock

Manfred Mann Chapter Three was a British experimental jazz rock band founded by South African keyboard player Manfred Mann and long-time partner Mike Hugg. The line-up for its debut at Newcastle's Mayfair Ballroom on 24 October 1969 was; Mike Hugg (vocals/electric piano), Mann (organ), Bernie Living (alto sax), Steve York (bass) and Craig Collinge (drums), augmented by a five-piece brass section of Clive Stevens (tenor sax), Carl Griffiths (tenor sax), Dave Coxhill (baritone sax), Gerald Drewett (trombone) and Sonny Corbett (trumpet).

The band's approach centred on the "time, no changes" approach of Miles Davis and John Coltrane applied to slow, funky grooves with voodoo lyrics inspired by Dr. John alternating with blaring big-band horn riffs and improvised free-jazz solos reminiscent of Ornette Coleman and Albert Ayler. Although intelligible at a time when artists like Davis himself were crossing over into the rock/funk field and American "jazz-rock" ensembles such as Blood, Sweat and Tears, Chicago, and The Mothers of Invention espoused brass sections and atonality, the formula was limited and the band expensive to maintain, so it was short-lived and disbanded after two albums. A third album was recorded in 1971, but shelved before its release. It consisted both of love songs which Mike Hugg would rerecord for his first solo albums and more experimental music featuring brass arrangements or Manfred Mann on the Moog synthesizer. Mann went on to form Manfred Mann's Earth Band in 1971…

~ wiki
Manfred Mann Chapter Three - Manfred Mann Chapter Three `69 & Volume Two `70 (2004)

Manfred Mann Chapter Three - Manfred Mann Chapter Three `69 & Volume Two `70 (2004):

Manfred Mann Chapter Three - Manfred Mann Chapter Three `69 & Volume Two `70 (2004)

Tracklist CD1 - 1969 - Manfred Mann Chapter Three:
Air Mail Archive, AIRAC-1054, Japan

01. Travelling Lady 5:51
02. Snakeskin Garter 5:50
03. Konekuf 6:02
04. Sometimes 2:43
05. Devil Woman 5:29
06. Time 7:34
07. One Way Glass 3:36
08. Mister, You're A Better Man Than I 5:14
09. Ain't It Sad 2:01
10. A Study In Inaccuracy 4:09
11. Where Am I Going 2:51
12. Sometimes 2:26
13. Travelling Lady 5:23
14. Devil Woman 5:26
15. A Study In Inaccuracy 5:18

Exact Audio Copy V1.1 from 23. June 2015

EAC extraction logfile from 20. October 2015, 20:30

Manfred Mann Chapter Three / Manfred Mann Chapter Three (AIRAC-1054)

Used drive : PLEXTOR DVDR PX-891SA Adapter: 1 ID: 0

Read mode : Secure
Utilize accurate stream : Yes
Defeat audio cache : Yes
Make use of C2 pointers : No

Read offset correction : 6
Overread into Lead-In and Lead-Out : No
Fill up missing offset samples with silence : Yes
Delete leading and trailing silent blocks : No
Null samples used in CRC calculations : Yes
Used interface : Native Win32 interface for Win NT & 2000

Used output format : User Defined Encoder
Selected bitrate : 128 kBit/s
Quality : High
Add ID3 tag : No
Command line compressor : C:\Program Files (x86)\Exact Audio Copy\Flac\flac.exe
Additional command line options : -V -8 -T "Genre=%genre%" -T "Artist=%artist%" -T "Title=%title%" -T "Album=%albumtitle%" -T "Date=%year%" -T "Tracknumber=%tracknr%" -T "Comment=%comment%" %source%


TOC of the extracted CD

Track | Start | Length | Start sector | End sector
––––––––––––––––––––––––––––-
1 | 0:00.00 | 5:50.49 | 0 | 26298
2 | 5:50.49 | 5:50.18 | 26299 | 52566
3 | 11:40.67 | 6:01.41 | 52567 | 79682
4 | 17:42.33 | 2:42.44 | 79683 | 91876
5 | 20:25.02 | 5:28.69 | 91877 | 116545
6 | 25:53.71 | 7:34.15 | 116546 | 150610
7 | 33:28.11 | 3:35.46 | 150611 | 166781
8 | 37:03.57 | 5:13.58 | 166782 | 190314
9 | 42:17.40 | 2:00.40 | 190315 | 199354
10 | 44:18.05 | 4:09.09 | 199355 | 218038
11 | 48:27.14 | 2:51.24 | 218039 | 230887
12 | 51:18.38 | 2:26.24 | 230888 | 241861
13 | 53:44.62 | 5:23.35 | 241862 | 266121
14 | 59:08.22 | 5:26.25 | 266122 | 290596
15 | 64:34.47 | 5:18.18 | 290597 | 314464


Range status and errors

Selected range

Filename H:\dafnaplus\Manfred Mann Chapter Three - Manfred Mann Chapter Three\Manfred Mann Chapter Three - Manfred Mann Chapter Three (AIRAC-1054).wav

Peak level 96.6 %
Extraction speed 8.6 X
Range quality 100.0 %
Test CRC 4F8AEC1D
Copy CRC 4F8AEC1D
Copy OK

No errors occurred


AccurateRip summary

Track 1 accurately ripped (confidence 2) [7016BA8A] (AR v2)
Track 2 accurately ripped (confidence 2) [77430B7F] (AR v2)
Track 3 accurately ripped (confidence 2) [8EE94653] (AR v2)
Track 4 accurately ripped (confidence 2) [83786B71] (AR v2)
Track 5 accurately ripped (confidence 2) [D67DD90D] (AR v2)
Track 6 accurately ripped (confidence 2) [CF7303DF] (AR v2)
Track 7 accurately ripped (confidence 2) [F4BAEE30] (AR v2)
Track 8 accurately ripped (confidence 2) [3D7EA85A] (AR v2)
Track 9 accurately ripped (confidence 2) [8EEA9C9A] (AR v2)
Track 10 accurately ripped (confidence 2) [762B0C34] (AR v2)
Track 11 accurately ripped (confidence 2) [9A9346AC] (AR v2)
Track 12 accurately ripped (confidence 2) [6A5B2949] (AR v2)
Track 13 accurately ripped (confidence 2) [FA53CA38] (AR v2)
Track 14 accurately ripped (confidence 2) [E4EA28A5] (AR v2)
Track 15 accurately ripped (confidence 2) [27DAA26C] (AR v2)

All tracks accurately ripped

End of status report

–– CUETools DB Plugin V2.1.6

[CTDB TOCID: CsGc0Ir6w0JmcpnGo_8A.8sklMo-] found
Submit result: CsGc0Ir6w0JmcpnGo_8A.8sklMo- has been confirmed
Track | CTDB Status
1 | (1/1) Accurately ripped
2 | (1/1) Accurately ripped
3 | (1/1) Accurately ripped
4 | (1/1) Accurately ripped
5 | (1/1) Accurately ripped
6 | (1/1) Accurately ripped
7 | (1/1) Accurately ripped
8 | (1/1) Accurately ripped
9 | (1/1) Accurately ripped
10 | (1/1) Accurately ripped
11 | (1/1) Accurately ripped
12 | (1/1) Accurately ripped
13 | (1/1) Accurately ripped
14 | (1/1) Accurately ripped
15 | (1/1) Accurately ripped


==== Log checksum 7977E6FBE185BC7154791859401A1B6B147B5C7CFABF1207B6D7F13982E378E6 ====


[CUETools log; Date: 01.11.2017 17:16:32; Version: 2.1.5]
[CTDB TOCID: CsGc0Ir6w0JmcpnGo_8A.8sklMo-] found.
Track | CTDB Status
1 | (2/2) Accurately ripped
2 | (2/2) Accurately ripped
3 | (2/2) Accurately ripped
4 | (2/2) Accurately ripped
5 | (2/2) Accurately ripped
6 | (2/2) Accurately ripped
7 | (2/2) Accurately ripped
8 | (2/2) Accurately ripped
9 | (2/2) Accurately ripped
10 | (2/2) Accurately ripped
11 | (2/2) Accurately ripped
12 | (2/2) Accurately ripped
13 | (2/2) Accurately ripped
14 | (2/2) Accurately ripped
15 | (2/2) Accurately ripped
[AccurateRip ID: 002838e8-01bdbd65-bc10600f] found.
Track [ CRC | V2 ] Status
01 [0d131f97|7016ba8a] (2+3/8) Accurately ripped
02 [2120fb95|77430b7f] (2+3/8) Accurately ripped
03 [d34995cb|8ee94653] (2+3/8) Accurately ripped
04 [8017d10a|83786b71] (2+3/8) Accurately ripped
05 [3be7fa52|d67dd90d] (2+3/8) Accurately ripped
06 [0dfda68f|cf7303df] (2+3/8) Accurately ripped
07 [c8dd8976|f4baee30] (2+3/8) Accurately ripped
08 [7336d32e|3d7ea85a] (2+3/8) Accurately ripped
09 [0994a1f1|8eea9c9a] (2+3/8) Accurately ripped
10 [357ba243|762b0c34] (2+3/8) Accurately ripped
11 [2043a441|9a9346ac] (2+3/8) Accurately ripped
12 [e7ee2a06|6a5b2949] (2+3/7) Accurately ripped
13 [532ccb96|fa53ca38] (2+3/7) Accurately ripped
14 [4af405b9|e4ea28a5] (2+3/7) Accurately ripped
15 [aeb10522|27daa26c] (2+3/7) Accurately ripped
Offsetted by -474:
01 [205cc8b4] (3/8) Accurately ripped
02 [2ded5616] (3/8) Accurately ripped
03 [56d49a9e] (3/8) Accurately ripped
04 [6ccbdbef] (3/8) Accurately ripped
05 [78f9a3f1] (3/8) Accurately ripped
06 [39ffec40] (3/8) Accurately ripped
07 [18860309] (3/8) Accurately ripped
08 [de037ed6] (3/8) Accurately ripped
09 [17032124] (3/8) Accurately ripped
10 [e277613d] (3/8) Accurately ripped
11 [0c8f5930] (3/8) Accurately ripped
12 [bac86a7a] (2/7) Accurately ripped
13 [014923f5] (2/7) Accurately ripped
14 [b2c37f9e] (2/7) Accurately ripped
15 [51504920] (2/7) Accurately ripped

Track Peak [ CRC32 ] [W/O NULL] [ LOG ]
– 96,6 [4F8AEC1D] [4F24750F] CRC32
01 96,6 [3482DED6] [F3358440]
02 96,6 [2C5C1809] [2026737A]
03 93,3 [AF7AE4DE] [C7F6BDB0]
04 96,6 [C948072F] [1F5B2265]
05 96,6 [0A5D5DF5] [F039E0F3]
06 96,1 [76F52F53] [5AE5DAF5]
07 93,0 [896B1B44] [62B785E4]
08 89,1 [780C8339] [1CF3D481]
09 88,1 [6F04E8E0] [7CDDA203]
10 93,1 [D6962166] [3B100978]
11 81,2 [A8EC04A3] [067011BC]
12 85,2 [39BBE8DF] [094C270A]
13 90,7 [20DAB1CE] [3621B16C]
14 89,5 [9719425A] [BB120932]
15 85,2 [13AEBEA3] [0380D49E]


Manfred Mann Chapter Three - Manfred Mann Chapter Three `69 & Volume Two `70 (2004)

Tracklist CD2 - 1970 - Volume Two:
Air Mail Archive, AIRAC-1055, Japan

01. Lady Ace 8:00
02. I Ain't Laughing 2:36
03. Poor Sad Sue 5:56
04. Jump Before You Think 4:52
05. It's Good to Be Alive 3:32
06. Happy Being Me 15:55
07. Virginia 4:55
08. I Ain't Laughing 2:36
09. Happy Being Me 4:04
10. Virginia 3:39

Exact Audio Copy V1.1 from 23. June 2015

EAC extraction logfile from 20. October 2015, 20:49

Manfred Mann Chapter Three / Volume Two (AIRAC-1055)

Used drive : PLEXTOR DVDR PX-891SA Adapter: 1 ID: 0

Read mode : Secure
Utilize accurate stream : Yes
Defeat audio cache : Yes
Make use of C2 pointers : No

Read offset correction : 6
Overread into Lead-In and Lead-Out : No
Fill up missing offset samples with silence : Yes
Delete leading and trailing silent blocks : No
Null samples used in CRC calculations : Yes
Used interface : Native Win32 interface for Win NT & 2000

Used output format : User Defined Encoder
Selected bitrate : 128 kBit/s
Quality : High
Add ID3 tag : No
Command line compressor : C:\Program Files (x86)\Exact Audio Copy\Flac\flac.exe
Additional command line options : -V -8 -T "Genre=%genre%" -T "Artist=%artist%" -T "Title=%title%" -T "Album=%albumtitle%" -T "Date=%year%" -T "Tracknumber=%tracknr%" -T "Comment=%comment%" %source%


TOC of the extracted CD

Track | Start | Length | Start sector | End sector
––––––––––––––––––––––––––––-
1 | 0:00.00 | 7:59.71 | 0 | 35995
2 | 7:59.71 | 2:36.19 | 35996 | 47714
3 | 10:36.15 | 5:56.37 | 47715 | 74451
4 | 16:32.52 | 4:51.40 | 74452 | 96316
5 | 21:24.17 | 3:32.27 | 96317 | 112243
6 | 24:56.44 | 15:55.10 | 112244 | 183878
7 | 40:51.54 | 4:54.41 | 183879 | 205969
8 | 45:46.20 | 2:35.73 | 205970 | 217667
9 | 48:22.18 | 4:04.16 | 217668 | 235983
10 | 52:26.34 | 3:38.64 | 235984 | 252397


Range status and errors

Selected range

Filename H:\dafnaplus\Manfred Mann Chapter Three - Volume Two\Manfred Mann Chapter Three - Volume Two (AIRAC-1055).wav

Peak level 96.6 %
Extraction speed 7.6 X
Range quality 100.0 %
Test CRC 3D010009
Copy CRC 3D010009
Copy OK

No errors occurred


AccurateRip summary

Track 1 accurately ripped (confidence 2) [82738E10] (AR v1)
Track 2 accurately ripped (confidence 2) [11CBF3EC] (AR v1)
Track 3 accurately ripped (confidence 2) [1CEA4B5B] (AR v1)
Track 4 accurately ripped (confidence 2) [5B9E5132] (AR v1)
Track 5 accurately ripped (confidence 2) [1A1B3953] (AR v1)
Track 6 accurately ripped (confidence 2) [60A15DAB] (AR v1)
Track 7 accurately ripped (confidence 2) [E232C941] (AR v1)
Track 8 accurately ripped (confidence 2) [CA277BC3] (AR v1)
Track 9 accurately ripped (confidence 2) [E729364A] (AR v1)
Track 10 accurately ripped (confidence 2) [273C7F69] (AR v1)

All tracks accurately ripped

End of status report

–– CUETools DB Plugin V2.1.6

[CTDB TOCID: YD6xA45DfGFGams38R1Qh_cnc9M-] found
Submit result: YD6xA45DfGFGams38R1Qh_cnc9M- has been confirmed
Track | CTDB Status
1 | (2/2) Accurately ripped
2 | (2/2) Accurately ripped
3 | (2/2) Accurately ripped
4 | (2/2) Accurately ripped
5 | (2/2) Accurately ripped
6 | (2/2) Accurately ripped
7 | (2/2) Accurately ripped
8 | (2/2) Accurately ripped
9 | (2/2) Accurately ripped
10 | (2/2) Accurately ripped


==== Log checksum 8A2BD0CEDC0DE90DEC44729C114F0CC04515A10C5394992BA5CA0224AFE9B527 ====


[CUETools log; Date: 01.11.2017 17:17:02; Version: 2.1.5]
[CTDB TOCID: YD6xA45DfGFGams38R1Qh_cnc9M-] found.
Track | CTDB Status
1 | (4/4) Accurately ripped
2 | (4/4) Accurately ripped
3 | (4/4) Accurately ripped
4 | (4/4) Accurately ripped
5 | (4/4) Accurately ripped
6 | (4/4) Accurately ripped
7 | (4/4) Accurately ripped
8 | (4/4) Accurately ripped
9 | (4/4) Accurately ripped
10 | (4/4) Accurately ripped
[AccurateRip ID: 0016515f-00b27fda-9f0d250a] found.
Track [ CRC | V2 ] Status
01 [82738e10|f18b69de] (2+2/6) Accurately ripped
02 [11cbf3ec|90dce0cb] (2+2/6) Accurately ripped
03 [1cea4b5b|0d82e5eb] (2+2/6) Accurately ripped
04 [5b9e5132|5634da57] (2+2/6) Accurately ripped
05 [1a1b3953|937f39a8] (2+2/6) Accurately ripped
06 [60a15dab|8b3b0503] (2+2/6) Accurately ripped
07 [e232c941|530807ab] (2+2/6) Accurately ripped
08 [ca277bc3|7f08211b] (2+2/6) Accurately ripped
09 [e729364a|6c013995] (2+2/6) Accurately ripped
10 [273c7f69|e0abc8f7] (2+2/6) Accurately ripped
Offsetted by -474:
01 [6d2f9440] (2/6) Accurately ripped
02 [030f7c10] (2/6) Accurately ripped
03 [555e25c9] (2/6) Accurately ripped
04 [92cf5c37] (2/6) Accurately ripped
05 [0dada0f9] (2/6) Accurately ripped
06 [194c868f] (2/6) Accurately ripped
07 [257468bb] (2/6) Accurately ripped
08 [19839fe4] (2/6) Accurately ripped
09 [ce2ccd5c] (2/6) Accurately ripped
10 [45655325] (2/6) Accurately ripped

Track Peak [ CRC32 ] [W/O NULL] [ LOG ]
– 96,6 [3D010009] [B60C55B0] CRC32
01 96,6 [59DA1997] [77DBC04B]
02 85,8 [9B311FFF] [EF06240D]
03 88,3 [E6C0AF00] [B32845E7]
04 96,6 [AD88CA58] [0419283D]
05 96,6 [E272FCBC] [C921FF3F]
06 92,0 [0D38C095] [F9E6E49F]
07 96,6 [76AF72DD] [85190268]
08 86,0 [DC181FEC] [282682A3]
09 72,3 [F8BFCBF8] [05E5769C]
10 96,6 [3429FBF5] [C864B3BD]


All thanks go to dafnaplus

Manfred Mann or Manfred Mann in my Blog

Download Manfred Mann Chapter Three - Manfred Mann Chapter Three `69 & Volume Two `70 (2004):