Subcategories

Manfred Mann's Earth Band: Collection (1967 - 2014) [Vinyl Rip 16/44 & mp3-320]

Posted By: v3122
Manfred Mann's Earth Band: Collection (1967 - 2014) [Vinyl Rip 16/44 & mp3-320]

Manfred Mann's Earth Band: Collection (1967 - 2014)
10 x Vinyl Rip 16/44 | Flac(Image + Cue) > 2406 Mb
MP3 CBR 320Kbps > 936 Mb | Artwork > 1050 Mb
Art Rock, Progressive Rock, Jazz Rock

An R&B band that only played pop to get on the charts, Manfred Mann and its various permutations ranked among the most adept British Invasion acts in both styles. South African-born keyboardist Manfred Mann was originally an aspiring jazz player, moving toward R&B when more blues-oriented sounds became in vogue in England in the early '60s. Original Manfred Mann singer Paul Jones was one of the best British Invasion singers, and his resonant vocals were the best feature of their early R&B sides, which had a slightly jazzier and smoother touch than the early work of the Rolling Stones and Animals.

It was a couple covers of obscure girl group songs, "Do Wah Diddy Diddy" (the Exciters) and "Sha La La" (the Shirelles), that broke the group internationally – "Do Wah Diddy Diddy" reached number one in the States, and "Sha La La" just missed the Top Ten. The Paul Jones lineup never duplicated this success, although "Come Tomorrow" and "Pretty Flamingo" were smaller hits. From 1964 to 1966, they took the approach of playing gutsy pop/rock on their singles (including the original version of "My Little Red Book") and soul and R&B on their albums, with occasional detours into jazz, Dylan (their cover of his then-unreleased "If You Gotta Go, Go Now" was a big British hit), and competent original material.

Jones left for a solo career and acting in 1966, and the group reformed around singer Mike D'Abo (Beatle friend Klaus Voormann was also in this aggregation on bass). Adopting an even more pop-oriented approach for the singles, with occasional psychedelic and progressive touches, the band ran off a string of Top Ten hits in their homeland until 1969, although the only one to hit the jackpot in the U.S. was their cover of another unreleased Dylan song, "The Mighty Quinn."

Mann dissolved the D'Abo lineup in 1969 to form Manfred Mann Chapter Three with drummer Mike Hugg, who had been in the band since the beginning. The outfit's early jazz-rock efforts were interesting, but not very popular, and Manfred steered the ship back toward mainstream rock by forming yet another incarnation, Manfred Mann's Earth Band. The heavier, more synthesizer-oriented outfit made quite a few albums in the 1970s; 1976's The Roaring Silence made the Top Ten, and featured the number one hit "Blinded by the Light" (Mann also made the Top 40 with another Springsteen cover, "Spirit in the Night"). Ironically, despite Mann's oft-proclaimed preferences for serious explorations of jazz, blues, and progressive music, it's his pop/rock recordings that hold up best, and for which he'll be remembered most.

by Richie Unterberger, allmusic
Manfred Mann's Earth Band: Collection (1967 - 2014) [Vinyl Rip 16/44 & mp3-320]


Manfred Mann's Earth Band: Collection (1967 - 2014):

Manfred Mann's Earth Band: Collection (1967 - 2014) [Vinyl Rip 16/44 & mp3-320]

Tracklist VNL01 - MANFRED MANN - Soul Of Mann:
JP LP 1967 Odeon Records, OP-8174

01. A1. Satisfaction [02:49]
02. A2. The Abominable Snowmann [02:47]
03. A3. I Got You Babe [02:32]
04. A4. Bare Hugg [03:54]
05. A5. Spirit Feel [02:43]
06. A6. Why Should We Not [03:02]
07. A7. L.S.D. [03:51]
08. B1. God Rest Ye Merry Gentlemen [01:56]
09. B2. My Generation [02:30]
10. B3. Mr. Anello [02:16]
11. B4. Still I'm Sad [02:44]
12. B5. Tengo Tango [03:38]
13. B6. Brother Jack [02:30]
14. B7. Sack O'Woe [02:14]

foobar2000 1.2.9 / Dynamic Range Meter 1.1.1
log date: 2017-04-28 19:47:30

––––––––––––––––––––––––––––––––––––––––
Analyzed: MANFRED MANN / Soul Of Mann
––––––––––––––––––––––––––––––––––––––––

DR Peak RMS Duration Track
––––––––––––––––––––––––––––––––––––––––
DR9 -4.75 dB -17.87 dB 2:49 01-A1. Satisfaction
DR10 -4.04 dB -17.46 dB 2:47 02-A2. The Abominable Snowmann
DR10 -4.66 dB -17.95 dB 2:32 03-A3. I Got You Babe
DR11 -4.87 dB -19.11 dB 3:54 04-A4. Bare Hugg
DR11 -4.73 dB -17.97 dB 2:43 05-A5. Spirit Feel
DR10 -6.41 dB -19.29 dB 3:02 06-A6. Why Should We Not
DR11 -3.10 dB -17.87 dB 3:51 07-A7. L.S.D.
DR10 -5.73 dB -19.61 dB 1:56 08-B1. God Rest Ye Merry Gentlemen
DR9 -4.76 dB -18.15 dB 2:30 09-B2. My Generation
DR10 -4.17 dB -17.68 dB 2:16 10-B3. Mr. Anello
DR10 -5.21 dB -18.45 dB 2:44 11-B4. Still I'm Sad
DR11 -4.34 dB -18.10 dB 3:38 12-B5. Tengo Tango
DR10 -5.86 dB -20.53 dB 2:30 13-B6. Brother Jack
DR10 -4.96 dB -17.33 dB 2:14 14-B7. Sack O'Woe
––––––––––––––––––––––––––––––––––––––––

Number of tracks: 14
Official DR value: DR10

Samplerate: 44100 Hz
Channels: 2
Bits per sample: 16
Bitrate: 814 kbps
Codec: FLAC

Manfred Mann's Earth Band: Collection (1967 - 2014) [Vinyl Rip 16/44 & mp3-320]

Tracklist VNL02 - MANFRED MANN'S EARTH BAND - Solar Fire (1973):
JP LP 1974 Nippon Columbia Co., YP-7053-BZ

01. A1. Father Of Day, Father Of Night [09:55]
02. A2. In The Beginning, Darkness [05:24]
03. A3. Pluto The Dog [02:51]
04. B1. Solar Fire [05:19]
05. B2. Saturn, Lord Of The Ring / Mercury, The Winged Messenger [06:34]
06. B3. Earth: The Circle Part Two [03:24]
07. B4. Earth: The Circle Part One [03:55]

foobar2000 1.2.9 / Dynamic Range Meter 1.1.1
log date: 2017-04-28 19:47:46

––––––––––––––––––––––––––––––––––––––––
Analyzed: MANFRED MANN'S EARTH BAND / Solar Fire
––––––––––––––––––––––––––––––––––––––––

DR Peak RMS Duration Track
––––––––––––––––––––––––––––––––––––––––
DR12 -1.18 dB -17.35 dB 9:55 01-A1. Father Of Day, Father Of Night
DR12 -2.21 dB -16.61 dB 5:24 02-A2. In The Beginning, Darkness
DR12 -2.06 dB -15.93 dB 2:51 03-A3. Pluto The Dog
DR11 -2.45 dB -16.43 dB 5:19 04-B1. Solar Fire
DR12 -1.93 dB -17.09 dB 6:34 05-B2. Saturn, Lord Of The Ring / Mercury, The Winged Messenger
DR12 -2.36 dB -17.58 dB 3:24 06-B3. Earth: The Circle Part Two
DR11 -3.00 dB -19.02 dB 3:55 07-B4. Earth: The Circle Part One
––––––––––––––––––––––––––––––––––––––––

Number of tracks: 7
Official DR value: DR12

Samplerate: 44100 Hz
Channels: 2
Bits per sample: 16
Bitrate: 817 kbps
Codec: FLAC

Manfred Mann's Earth Band: Collection (1967 - 2014) [Vinyl Rip 16/44 & mp3-320]

Tracklist VNL03 - MANFRED MANN'S EARTH BAND - Nightingales & Bombers:
JP LP 1975 Warner-Pioneer Corporation, P-10046

01. A1. Spirits in the Night [06:28]
02. A2. Countdown [03:06]
03. A3. Time Is Right [06:32]
04. A4. Crossfade [03:39]
05. B1. Visionary Mountains [05:43]
06. B2. Nightingales and Bombers [04:53]
07. B3. Fat Nelly [03:20]
08. B4. As Above, So Below [04:22]

foobar2000 1.2.9 / Dynamic Range Meter 1.1.1
log date: 2017-04-28 19:48:11

––––––––––––––––––––––––––––––––––––––––
Analyzed: MANFRED MANN'S EARTH BAND / Nightingales & Bombers
––––––––––––––––––––––––––––––––––––––––

DR Peak RMS Duration Track
––––––––––––––––––––––––––––––––––––––––
DR14 -0.30 dB -17.53 dB 6:27 01-A1. Spirits in the Night
DR11 -2.22 dB -15.39 dB 3:05 02-A2. Countdown
DR13 -1.10 dB -17.74 dB 6:31 03-A3. Time Is Right
DR11 -0.95 dB -14.57 dB 3:38 04-A4. Crossfade
DR12 -2.24 dB -17.56 dB 5:43 05-B1. Visionary Mountains
DR13 -1.74 dB -17.93 dB 4:53 06-B2. Nightingales and Bombers
DR13 -1.74 dB -17.97 dB 3:20 07-B3. Fat Nelly
DR14 -2.68 dB -21.66 dB 4:22 08-B4. As Above, So Below
––––––––––––––––––––––––––––––––––––––––

Number of tracks: 8
Official DR value: DR13

Samplerate: 44100 Hz
Channels: 2
Bits per sample: 16
Bitrate: 821 kbps
Codec: FLAC

Manfred Mann's Earth Band: Collection (1967 - 2014) [Vinyl Rip 16/44 & mp3-320]

Tracklist VNL04 - MANFRED MANN'S EARTH BAND - The Roaring Silence:
JP LP 1976 Warner-Pioneer Corporation, P-10240B

01. A1. Blinded By The Light [07:09]
02. A2. Singing The Dolphin Through [08:22]
03. A3. Waiter, There's A Yawn In My Ear [05:40]
04. B1. The Road To Babylon [06:54]
05. B2. This Side Of Paradise [04:46]
06. B3. Starbird [03:10]
07. B4. Questions [04:01]

foobar2000 1.2.9 / Dynamic Range Meter 1.1.1
log date: 2017-04-28 19:48:29

––––––––––––––––––––––––––––––––––––––––
Analyzed: MANFRED MANN'S EARTH BAND / The Roaring Silence
––––––––––––––––––––––––––––––––––––––––

DR Peak RMS Duration Track
––––––––––––––––––––––––––––––––––––––––
DR12 -2.33 dB -17.86 dB 7:09 01-A1. Blinded By The Light
DR13 -4.04 dB -19.78 dB 8:22 02-A2. Singing The Dolphin Through
DR13 -4.27 dB -20.43 dB 5:40 03-A3. Waiter, There's A Yawn In My Ear
DR13 -3.25 dB -18.87 dB 6:54 04-B1. The Road To Babylon
DR12 -4.47 dB -19.73 dB 4:46 05-B2. This Side Of Paradise
DR11 -2.84 dB -19.99 dB 3:10 06-B3. Starbird
DR12 -4.24 dB -20.59 dB 4:01 07-B4. Questions
––––––––––––––––––––––––––––––––––––––––

Number of tracks: 7
Official DR value: DR12

Samplerate: 44100 Hz
Channels: 2
Bits per sample: 16
Bitrate: 793 kbps
Codec: FLAC

Manfred Mann's Earth Band: Collection (1967 - 2014) [Vinyl Rip 16/44 & mp3-320]

Tracklist VNL05 - MANFRED MANN'S EARTH BAND - Watch:
UK LP 1978 Bronze Records Ltd., BRON 507

ing On Dry Land / Fish Soup [06:00]
03. A3. Chicago Institute [05:49]
04. A4. California [05:32]
05. B1. Davy's On The Road Again [05:56]
06. B2. Martha's Madman [04:53]
07. B3. Mighty Quinn [06:18]

foobar2000 1.2.9 / Dynamic Range Meter 1.1.1
log date: 2017-04-28 19:48:44

––––––––––––––––––––––––––––––––––––––––
Analyzed: MANFRED MANN'S EARTH BAND / Watch
––––––––––––––––––––––––––––––––––––––––

DR Peak RMS Duration Track
––––––––––––––––––––––––––––––––––––––––
DR13 -1.43 dB -17.56 dB 4:50 01-A1. Circles
DR13 -2.35 dB -18.72 dB 6:00 02-A2. Drowning On Dry Land / Fish Soup
DR13 -3.04 dB -19.06 dB 5:49 03-A3. Chicago Institute
DR14 -1.29 dB -17.58 dB 5:33 04-A4. California
DR13 -3.90 dB -19.94 dB 5:56 05-B1. Davy's On The Road Again
DR15 -2.03 dB -18.88 dB 4:54 06-B2. Martha's Madman
DR14 -1.76 dB -19.22 dB 6:19 07-B3. Mighty Quinn
––––––––––––––––––––––––––––––––––––––––

Number of tracks: 7
Official DR value: DR14

Samplerate: 44100 Hz
Channels: 2
Bits per sample: 16
Bitrate: 835 kbps
Codec: FLAC

Manfred Mann's Earth Band: Collection (1967 - 2014) [Vinyl Rip 16/44 & mp3-320]

Tracklist VNL06 - MANFRED MANN'S EARTH BAND - Angel Station:
JP LP 1979 TOSHIBA-EMI, WBS-81210

01. A1. Don't Kill It Carol [06:19]
02. A2. You Angel You [04:03]
03. A3. Hollywood Town [05:11]
04. A4. 'Belle' Of The Earth [02:46]
05. A5. Platform End [01:31]
06. B1. Angels At My Gate [04:50]
07. B2. You Are - I Am [05:13]
08. B3. Waiting For The Rain [06:20]
09. B4. Resurrection [02:50]

foobar2000 1.2.9 / Dynamic Range Meter 1.1.1
log date: 2017-04-28 19:49:03

––––––––––––––––––––––––––––––––––––––––
Analyzed: MANFRED MANN'S EARTH BAND / Angel Station
––––––––––––––––––––––––––––––––––––––––

DR Peak RMS Duration Track
––––––––––––––––––––––––––––––––––––––––
DR12 -2.86 dB -17.46 dB 6:19 01-A1. Don't Kill It Carol
DR12 -3.16 dB -17.14 dB 4:03 02-A2. You Angel You
DR13 -2.27 dB -18.33 dB 5:11 03-A3. Hollywood Town
DR14 -2.94 dB -19.38 dB 2:46 04-A4. 'Belle' Of The Earth
DR12 -4.11 dB -18.84 dB 1:31 05-A5. Platform End
DR13 -3.01 dB -18.05 dB 4:50 06-B1. Angels At My Gate
DR14 -2.61 dB -19.40 dB 5:13 07-B2. You Are - I Am
DR12 -3.84 dB -18.83 dB 6:20 08-B3. Waiting For The Rain
DR14 -3.45 dB -19.90 dB 2:50 09-B4. Resurrection
––––––––––––––––––––––––––––––––––––––––

Number of tracks: 9
Official DR value: DR13

Samplerate: 44100 Hz
Channels: 2
Bits per sample: 16
Bitrate: 802 kbps
Codec: FLAC

Manfred Mann's Earth Band: Collection (1967 - 2014) [Vinyl Rip 16/44 & mp3-320]

Tracklist VNL07 - MANFRED MANN'S EARTH BAND - Chance:
JP LP 1980 Victor Musical Industries, VIP-6782

01. A1. Lies (Through The 80's) [04:38]
02. A2. On The Run [03:53]
03. A3. For You [05:43]
04. A4. Adolescent Dream [02:45]
05. A5. Fritz The Blank [02:55]
06. B1. Stranded [05:52]
07. B2. Hello, I Am Your Heart [05:20]
08. B3. No Guarantee [03:52]
09. B4. Heart On The Street [04:58]

foobar2000 1.2.9 / Dynamic Range Meter 1.1.1
log date: 2017-04-28 19:49:17

––––––––––––––––––––––––––––––––––––––––
Analyzed: MANFRED MANN'S EARTH BAND / Chance [Japan VIP-6782]
––––––––––––––––––––––––––––––––––––––––

DR Peak RMS Duration Track
––––––––––––––––––––––––––––––––––––––––
DR11 -1.90 dB -15.85 dB 4:38 01-A1. Lies (Through The 80's)
DR12 -2.82 dB -17.11 dB 3:53 02-A2. On The Run
DR13 -2.19 dB -18.11 dB 5:44 03-A3. For You
DR13 -3.67 dB -19.15 dB 2:45 04-A4. Adolescent Dream
DR13 -2.70 dB -18.73 dB 2:55 05-A5. Fritz The Blank
DR13 -2.62 dB -17.85 dB 5:52 06-B1. Stranded
DR11 -3.66 dB -17.19 dB 5:20 07-B2. Hello, I Am Your Heart
DR12 -3.50 dB -18.97 dB 3:52 08-B3. No Guarantee
DR13 -4.11 dB -20.06 dB 4:58 09-B4. Heart On The Street
––––––––––––––––––––––––––––––––––––––––

Number of tracks: 9
Official DR value: DR12

Samplerate: 44100 Hz
Channels: 2
Bits per sample: 16
Bitrate: 799 kbps
Codec: FLAC

Manfred Mann's Earth Band: Collection (1967 - 2014) [Vinyl Rip 16/44 & mp3-320]

Tracklist VNL08 - MANFRED MANN'S EARTH BAND - Criminal Tango (with Chris Thompson):
JP LP 1986 Toshiba EMI Ltd., 25VB-1091

01. A1. Going Underground [05:21]
02. A2. Who Are The Mystery Kids? [03:44]
03. A3. Banquet [05:18]
04. A4. Killer On The Loose [04:00]
05. B1. Do Anything You Wanna Do [04:15]
06. B2. Rescue [03:01]
07. B3. You Got Me Right Through The Heart [03:53]
08. B4. Bulldog [04:25]
09. B5. Crossfire [03:51]

foobar2000 1.2.9 / Dynamic Range Meter 1.1.1
log date: 2017-04-28 19:49:31

––––––––––––––––––––––––––––––––––––––––
Analyzed: MANFRED MANN'S EARTH BAND / Criminal Tango (with Chris Thompson)
––––––––––––––––––––––––––––––––––––––––

DR Peak RMS Duration Track
––––––––––––––––––––––––––––––––––––––––
DR12 -0.14 dB -15.50 dB 5:21 01-A1. Going Underground
DR12 -0.12 dB -14.48 dB 3:44 02-A2. Who Are The Mystery Kids?
DR12 -0.40 dB -15.52 dB 5:18 03-A3. Banquet
DR14 -0.87 dB -16.76 dB 4:00 04-A4. Killer On The Loose
DR13 -0.20 dB -15.13 dB 4:15 05-B1. Do Anything You Wanna Do
DR13 -0.65 dB -15.87 dB 3:01 06-B2. Rescue
DR13 -0.41 dB -15.22 dB 3:53 07-B3. You Got Me Right Through The Heart
DR13 -0.87 dB -16.52 dB 4:24 08-B4. Bulldog
DR14 -0.49 dB -18.74 dB 3:51 09-B5. Crossfire
––––––––––––––––––––––––––––––––––––––––

Number of tracks: 9
Official DR value: DR13

Samplerate: 44100 Hz
Channels: 2
Bits per sample: 16
Bitrate: 903 kbps
Codec: FLAC

Manfred Mann's Earth Band: Collection (1967 - 2014) [Vinyl Rip 16/44 & mp3-320]

Tracklist VNL09 - MANFRED MANN'S EARTH BAND - Masque:
DE LP 1987 10 Records Ltd., 208 632-630

01. A1. Joybringer (from Jupiter) [02:28]
02. A2. Billies Orno Bounce (including Billies Bounce) [03:14]
03. A3. What You Give Is What You Get (Start) [02:37]
04. A4. Rivers Run Dry [03:05]
05. A5. Planets Schmanets [02:40]
06. A6. Geronimos Cadillac [04:47]
07. B1. Sister Billy's Bounce (including Sister Sadie & Billies Bounce) [02:18]
08. B2. Telegram To Monica [05:39]
09. B3. A Couple O Mates (from Mars & Jupiter) [03:21]
10. B4. Neptune (Icebringer) [01:08]
11. B5. The Hymn (from Jupiter) [03:58]
12. B6. We're Going Wrong [04:01]

foobar2000 1.2.9 / Dynamic Range Meter 1.1.1
log date: 2017-04-28 19:49:43

––––––––––––––––––––––––––––––––––––––––
Analyzed: MANFRED MANN'S EARTH BAND / Masque
––––––––––––––––––––––––––––––––––––––––

DR Peak RMS Duration Track
––––––––––––––––––––––––––––––––––––––––
DR13 -1.63 dB -18.73 dB 2:27 01-A1. Joybringer (from Jupiter)
DR14 -2.26 dB -19.06 dB 3:13 02-A2. Billies Orno Bounce (including Billies Bounce)
DR12 -4.07 dB -18.82 dB 2:36 03-A3. What You Give Is What You Get (Start)
DR12 -2.61 dB -17.30 dB 3:05 04-A4. Rivers Run Dry
DR13 -5.69 dB -22.94 dB 2:40 05-A5. Planets Schmanets
DR13 -1.41 dB -17.17 dB 4:47 06-A6. Geronimos Cadillac
DR14 -1.57 dB -18.60 dB 2:17 07-B1. Sister Billy's Bounce (including Sister Sadie & Billies Bounce)
DR13 -3.61 dB -18.28 dB 5:38 08-B2. Telegram To Monica
DR12 -4.44 dB -18.90 dB 3:20 09-B3. A Couple O Mates (from Mars & Jupiter)
DR9 -9.55 dB -21.56 dB 1:08 10-B4. Neptune (Icebringer)
DR12 -4.50 dB -18.83 dB 3:57 11-B5. The Hymn (from Jupiter)
DR12 -3.15 dB -17.25 dB 4:00 12-B6. We're Going Wrong
––––––––––––––––––––––––––––––––––––––––

Number of tracks: 12
Official DR value: DR12

Samplerate: 44100 Hz
Channels: 2
Bits per sample: 16
Bitrate: 853 kbps
Codec: FLAC

Manfred Mann's Earth Band: Collection (1967 - 2014) [Vinyl Rip 16/44 & mp3-320]

Tracklist VNL10 - MANFRED MANN - Lone Arranger:
UK 2 x LP 2014 Creature Music Ltd., MANNLP 22

01. A1. One Hand In The Air [02:54]
02. A2. Rock You [02:58]
03. A3. Footprints (En Aranjuez Con Tu Amor) [03:52]
04. B1. All Right Now [03:57]
05. B2. I Came For You [03:15]
06. B3. Light My Fire [04:45]
07. B4. Nothing Compares To You [04:27]
08. C1. I Heard It Through The Grapevine [03:44]
09. C2. Insects [02:10]
10. C3. UKOR [01:46]
11. C4. The Crystal Ship [02:01]
12. D1. One Way Stand-up [03:37]
13. D2. Bang A Gong [03:35]
14. D3. Aranjuez First Movement (En Aranjuez Con Tu Amor) [03:41]

foobar2000 1.2.9 / Dynamic Range Meter 1.1.1
log date: 2017-04-28 19:50:26

––––––––––––––––––––––––––––––––––––––––
Analyzed: MANFRED MANN / Lone Arranger (2LP)
––––––––––––––––––––––––––––––––––––––––

DR Peak RMS Duration Track
––––––––––––––––––––––––––––––––––––––––
DR12 -0.76 dB -15.24 dB 2:54 01-A1. One Hand In The Air
DR11 -0.73 dB -14.81 dB 2:58 02-A2. Rock You
DR11 -2.93 dB -17.53 dB 3:52 03-A3. Footprints (En Aranjuez Con Tu Amor)
DR12 -1.23 dB -16.06 dB 3:57 04-B1. All Right Now
DR11 -2.63 dB -16.47 dB 3:15 05-B2. I Came For You
DR13 -1.26 dB -17.97 dB 4:45 06-B3. Light My Fire
DR12 -2.89 dB -18.60 dB 4:27 07-B4. Nothing Compares To You
DR11 -1.48 dB -14.81 dB 3:44 08-C1. I Heard It Through The Grapevine
DR13 -2.66 dB -17.88 dB 2:10 09-C2. Insects
DR12 -4.62 dB -20.41 dB 1:46 10-C3. UKOR
DR12 -3.12 dB -17.68 dB 2:01 11-C4. The Crystal Ship
DR11 -0.52 dB -15.01 dB 3:37 12-D1. One Way Stand-up
DR12 -0.90 dB -15.24 dB 3:35 13-D2. Bang A Gong
DR12 -1.19 dB -15.68 dB 3:41 14-D3. Aranjuez First Movement (En Aranjuez Con Tu Amor)
––––––––––––––––––––––––––––––––––––––––

Number of tracks: 14
Official DR value: DR12

Samplerate: 44100 Hz
Channels: 2
Bits per sample: 16
Bitrate: 795 kbps
Codec: FLAC


All thanks go to bazar, alvaedis & Alex Blackseam


Manfred Mann in my Blog

Download Manfred Mann's Earth Band: Collection (1967 - 2014):