Subcategories
Tags
Language
Tags

Manfred Mann's Earth Band - Bootleg Archives: Volume 1-5 (2009) {5CD Box Set}

Posted By: popsakov
Manfred Mann's Earth Band - Bootleg Archives: Volume 1-5 (2009) {5CD Box Set}

Manfred Mann's Earth Band - Bootleg Archives: Volume 1-5 (2009) {5CD Box Set}
EAC Rip | FLAC (Img) + Cue + Log ~ 2,27 Gb | MP3 CBR320 ~ 913 Mb
Full Scans ~ 72 Mb | RAR 5% Recovery
Progressive Rock / Art Rock / Hard Rock / Classic Rock
Cohesion / Creature Music Ltd. #MMARCHIVE1

2009 five CD live set from the veteran British band. Manfred Mann's Earth Band has toured consistently since their inception in the early '70s. No wonder then, that there are countless bootleg recordings doing the rounds. The band is renowned for shaping their songs on a gig-by-gig basis and this collection shows how the sets have been molded and developed over the years. The CDs contain recordings from various European venues, dating from 1981 to 2007. Apart from Volume One, they are all taken from single concerts. For timing purposes, some sets have been edited, but no other enhancements, re-records or overdubs have been added. The performances on this set were recorded in Europe 1981, Austria 1986, Germany 1991, Norway 1999, and Germany 2007.
Manfred Mann's Earth Band - Bootleg Archives: Volume 1-5 (2009) {5CD Box Set}


***************

Manfred Mann's Earth Band - Bootleg Archives: Volume 1-5 (2009) {5CD Box Set}

Track List CD1 - Volume 1. Live In Europe, 1981:

01. Hello Hello (Cologne) edit [0:05:03.60]
02. Angels At My Gate (Cologne) [0:05:38.29]
03. On The Run (Paris) [0:04:37.59]
04. Chicago Institute (Cologne) [0:07:08.62]
05. Spirits In The Night (Cologne) [0:08:45.19]
06. Fritz The Blank (Cologne) [0:04:08.39]
07. Martha's Madman [0:10:52.31]
08. Blinded By The Light [0:08:51.20]
09. Stranded [0:02:11.44]
10. Lies Thro' The 80's (Paris) [0:05:12.54]
11. Hobo Bill's Last Ride - Resurrection [0:02:28.03]
12. Step By Step (Vienna) [0:04:25.54]
13. Give Me The Good Earth (edit) [0:07:13.08]

Exact Audio Copy V1.0 beta 3 from 29. August 2011

EAC extraction logfile from 16. May 2013, 22:32

Manfred Mann's Earth Band / Volume 1. Live In Europe, 1981

Used drive : ATAPI iHAS124 D Adapter: 0 ID: 2

Read mode : Secure
Utilize accurate stream : Yes
Defeat audio cache : Yes
Make use of C2 pointers : Yes

Read offset correction : 6
Overread into Lead-In and Lead-Out : No
Fill up missing offset samples with silence : Yes
Delete leading and trailing silent blocks : No
Null samples used in CRC calculations : Yes
Used interface : Installed external ASPI interface

Used output format : User Defined Encoder
Selected bitrate : 896 kBit/s
Quality : High
Add ID3 tag : No
Command line compressor : C:\Program Files (x86)\Exact Audio Copy\FLAC\FLAC.EXE
Additional command line options : -6 -V -T "ARTIST=%artist%" -T "TITLE=%title%" -T "ALBUM=%albumtitle%" -T "DATE=%year%" -T "TRACKNUMBER=%tracknr%" -T "GENRE=%genre%" -T "COMMENT=%comment%" -T "BAND=%albuminterpret%" -T "ALBUMARTIST=%albuminterpret%" -T "COMPOSER=%composer%" %haslyrics%–tag-from-file=LYRICS="%lyricsfile%"%haslyrics% -T "DISCNUMBER=%cdnumber%" -T "TOTALDISCS=%totalcds%" -T "TOTALTRACKS=%numtracks%" %hascover%–picture="%coverfile%"%hascover% %source% -o %dest%


TOC of the extracted CD

Track | Start | Length | Start sector | End sector
––––––––––––––––––––––––––––-
1 | 0:00.00 | 5:03.60 | 0 | 22784
2 | 5:03.60 | 5:38.29 | 22785 | 48163
3 | 10:42.14 | 4:37.59 | 48164 | 68997
4 | 15:19.73 | 7:08.62 | 68998 | 101159
5 | 22:28.60 | 8:45.19 | 101160 | 140553
6 | 31:14.04 | 4:08.39 | 140554 | 159192
7 | 35:22.43 | 10:52.31 | 159193 | 208123
8 | 46:14.74 | 8:51.20 | 208124 | 247968
9 | 55:06.19 | 2:11.44 | 247969 | 257837
10 | 57:17.63 | 5:12.54 | 257838 | 281291
11 | 62:30.42 | 2:28.03 | 281292 | 292394
12 | 64:58.45 | 4:25.54 | 292395 | 312323
13 | 69:24.24 | 7:13.08 | 312324 | 344806


Range status and errors

Selected range

Filename C:\mm\Manfred Mann's Earth Band\2009 - Bootleg Archives Volume 1-5\Volume 1 - Live In Europe (1981)\Manfred Mann's Earth Band - Volume 1. Live In Europe, 1981.wav

Peak level 100.0 %
Extraction speed 14.4 X
Range quality 99.9 %
Test CRC EF935D50
Copy CRC EF935D50
Copy OK

No errors occurred


AccurateRip summary

Track 1 accurately ripped (confidence 4) [F3AC323D] (AR v1)
Track 2 accurately ripped (confidence 4) [79B152A9] (AR v1)
Track 3 accurately ripped (confidence 4) [707F3D0E] (AR v1)
Track 4 accurately ripped (confidence 4) [333669C1] (AR v1)
Track 5 accurately ripped (confidence 4) [B1AA2923] (AR v1)
Track 6 accurately ripped (confidence 4) [08BC82D6] (AR v1)
Track 7 accurately ripped (confidence 4) [E2F2E8E3] (AR v1)
Track 8 accurately ripped (confidence 4) [21DD80A1] (AR v1)
Track 9 accurately ripped (confidence 4) [3636ADAA] (AR v1)
Track 10 accurately ripped (confidence 4) [21740F12] (AR v1)
Track 11 accurately ripped (confidence 4) [E622EBA9] (AR v1)
Track 12 accurately ripped (confidence 4) [CA62F862] (AR v1)
Track 13 accurately ripped (confidence 4) [67A8459A] (AR v1)

All tracks accurately ripped

End of status report

–– CUETools DB Plugin V2.1.3

[CTDB TOCID: K6qDikxckLwkeOaXvVl_GsL1qtQ-] found, Submit result: already submitted
[86733103] (4/4) Accurately ripped

Manfred Mann's Earth Band - Bootleg Archives: Volume 1-5 (2009) {5CD Box Set}

Track List CD2 - Volume 2. Live In Vienna, Austria, 28 May 1986:

01. Banquet [0:05:36.58]
02. Tribal Statistics [0:03:55.65]
03. Visionary Mountains [0:04:25.74]
04. Redemption Song [0:03:21.68]
05. Going Undergound [0:08:52.36]
06. Do Anything You Wanna Do [0:06:50.35]
07. Father of Day [0:09:24.57]
08. The Runner [0:06:22.42]
09. Gimme Some Loving [0:05:45.38]
10. The Third Man Theme [0:04:43.08]
11. Mighty Quinn [0:07:52.66]
12. Davy's On The Road Again [0:08:01.12]

Exact Audio Copy V1.0 beta 3 from 29. August 2011

EAC extraction logfile from 17. May 2013, 10:48

Manfred Mann's Earth Band / Volume 2. Live In Vienna, 1986

Used drive : HL-DT-STDVDRAM GH22NS50 Adapter: 2 ID: 1

Read mode : Secure
Utilize accurate stream : Yes
Defeat audio cache : No
Make use of C2 pointers : Yes

Read offset correction : 667
Overread into Lead-In and Lead-Out : No
Fill up missing offset samples with silence : Yes
Delete leading and trailing silent blocks : No
Null samples used in CRC calculations : Yes
Used interface : Native Win32 interface for Win NT & 2000

Used output format : User Defined Encoder
Selected bitrate : 896 kBit/s
Quality : High
Add ID3 tag : Yes
Command line compressor : C:\MMProgram\Exact Audio Copy\FLAC\FLAC.EXE
Additional command line options : -6 -V -T "ARTIST=%artist%" -T "TITLE=%title%" -T "ALBUM=%albumtitle%" -T "DATE=%year%" -T "TRACKNUMBER=%tracknr%" -T "GENRE=%genre%" -T "COMMENT=%comment%" -T "BAND=%albuminterpret%" -T "ALBUMARTIST=%albuminterpret%" -T "COMPOSER=%composer%" %haslyrics%–tag-from-file=LYRICS="%lyricsfile%"%haslyrics% -T "DISCNUMBER=%cdnumber%" -T "TOTALDISCS=%totalcds%" -T "TOTALTRACKS=%numtracks%" %hascover%–picture="%coverfile%"%hascover% %source% -o %dest%


TOC of the extracted CD

Track | Start | Length | Start sector | End sector
––––––––––––––––––––––––––––-
1 | 0:00.00 | 5:36.58 | 0 | 25257
2 | 5:36.58 | 3:55.65 | 25258 | 42947
3 | 9:32.48 | 4:25.74 | 42948 | 62896
4 | 13:58.47 | 3:21.68 | 62897 | 78039
5 | 17:20.40 | 8:52.36 | 78040 | 117975
6 | 26:13.01 | 6:50.35 | 117976 | 148760
7 | 33:03.36 | 9:24.57 | 148761 | 191117
8 | 42:28.18 | 6:22.42 | 191118 | 219809
9 | 48:50.60 | 5:45.38 | 219810 | 245722
10 | 54:36.23 | 4:43.08 | 245723 | 266955
11 | 59:19.31 | 7:52.66 | 266956 | 302421
12 | 67:12.22 | 8:01.12 | 302422 | 338508


Range status and errors

Selected range

Filename C:\mm\Manfred Mann's Earth Band\2009 - Bootleg Archives Volume 1-5\Volume 2 - Live In Vienna (1986)\Manfred Mann's Earth Band - Volume 2. Live In Vienna, 1986.wav

Peak level 99.2 %
Extraction speed 7.4 X
Range quality 100.0 %
Test CRC FC4C5ED6
Copy CRC FC4C5ED6
Copy OK

No errors occurred


AccurateRip summary

Track 1 accurately ripped (confidence 4) [C4D67530] (AR v1)
Track 2 accurately ripped (confidence 4) [8F55D318] (AR v1)
Track 3 accurately ripped (confidence 4) [7515E46E] (AR v1)
Track 4 accurately ripped (confidence 4) [58EDCD09] (AR v1)
Track 5 accurately ripped (confidence 4) [F5756648] (AR v1)
Track 6 accurately ripped (confidence 4) [CB4987A4] (AR v1)
Track 7 accurately ripped (confidence 4) [95DB996F] (AR v1)
Track 8 accurately ripped (confidence 4) [CF8965D6] (AR v1)
Track 9 accurately ripped (confidence 4) [B27B74EF] (AR v1)
Track 10 accurately ripped (confidence 4) [B107CE3D] (AR v1)
Track 11 accurately ripped (confidence 4) [A0123C7D] (AR v1)
Track 12 accurately ripped (confidence 4) [A78BCABE] (AR v1)

All tracks accurately ripped

End of status report

–– CUETools DB Plugin V2.1.3

[CTDB TOCID: IAjOQr.i4dilg7jE3TPn_FYp4_o-] found
[2b9deba3] (3/3) Accurately ripped


==== Log checksum 11F3DC9D0B3F8DB8A0865D6AF2A329AAAF8790C6F5C12ED1F1507FC6CC67E13A ====

Manfred Mann's Earth Band - Bootleg Archives: Volume 1-5 (2009) {5CD Box Set}

Track List CD3 - Volume 3. Live In Koln, Germany, 3 July 1991:

01. Banquet [0:02:26.15]
02. Shelter From The Storm [0:06:32.61]
03. The Times They Are A-Changin' [0:06:54.71]
04. Castles Burning [0:07:08.20]
05. Martha's Madman [0:09:00.28]
06. Medicine Song [0:02:53.00]
07. Redemption Song [0:03:31.52]
08. Blinded By The Light [0:09:05.56]
09. Davy's On The Road Again [0:07:08.34]
10. Crazy 'Bout An Automobile [0:08:15.59]
11. Jam [0:01:48.64]
12. Joybringer [0:05:17.60]
13. Pleasure And Pain [0:06:15.52]

Exact Audio Copy V1.0 beta 3 from 29. August 2011

EAC extraction logfile from 17. May 2013, 11:16

Manfred Mann's Earth Band / Volume 3. Live In Koln, 1991

Used drive : HL-DT-STDVDRAM GH22NS50 Adapter: 2 ID: 1

Read mode : Secure
Utilize accurate stream : Yes
Defeat audio cache : No
Make use of C2 pointers : Yes

Read offset correction : 667
Overread into Lead-In and Lead-Out : No
Fill up missing offset samples with silence : Yes
Delete leading and trailing silent blocks : No
Null samples used in CRC calculations : Yes
Used interface : Native Win32 interface for Win NT & 2000

Used output format : User Defined Encoder
Selected bitrate : 896 kBit/s
Quality : High
Add ID3 tag : Yes
Command line compressor : C:\MMProgram\Exact Audio Copy\FLAC\FLAC.EXE
Additional command line options : -6 -V -T "ARTIST=%artist%" -T "TITLE=%title%" -T "ALBUM=%albumtitle%" -T "DATE=%year%" -T "TRACKNUMBER=%tracknr%" -T "GENRE=%genre%" -T "COMMENT=%comment%" -T "BAND=%albuminterpret%" -T "ALBUMARTIST=%albuminterpret%" -T "COMPOSER=%composer%" %haslyrics%–tag-from-file=LYRICS="%lyricsfile%"%haslyrics% -T "DISCNUMBER=%cdnumber%" -T "TOTALDISCS=%totalcds%" -T "TOTALTRACKS=%numtracks%" %hascover%–picture="%coverfile%"%hascover% %source% -o %dest%


TOC of the extracted CD

Track | Start | Length | Start sector | End sector
––––––––––––––––––––––––––––-
1 | 0:00.00 | 2:26.15 | 0 | 10964
2 | 2:26.15 | 6:32.61 | 10965 | 40425
3 | 8:59.01 | 6:54.71 | 40426 | 71546
4 | 15:53.72 | 7:08.20 | 71547 | 103666
5 | 23:02.17 | 9:00.28 | 103667 | 144194
6 | 32:02.45 | 2:53.00 | 144195 | 157169
7 | 34:55.45 | 3:31.52 | 157170 | 173046
8 | 38:27.22 | 9:05.56 | 173047 | 213977
9 | 47:33.03 | 7:08.34 | 213978 | 246111
10 | 54:41.37 | 8:15.59 | 246112 | 283295
11 | 62:57.21 | 1:48.64 | 283296 | 291459
12 | 64:46.10 | 5:17.60 | 291460 | 315294
13 | 70:03.70 | 6:15.52 | 315295 | 343471


Range status and errors

Selected range

Filename C:\mm\Manfred Mann's Earth Band\2009 - Bootleg Archives Volume 1-5\Volume 3 - Live In Koln (1991)\Manfred Mann's Earth Band - Volume 3. Live In Koln, 1991.wav

Peak level 100.0 %
Extraction speed 7.0 X
Range quality 100.0 %
Test CRC FB026CAD
Copy CRC FB026CAD
Copy OK

No errors occurred


AccurateRip summary

Track 1 accurately ripped (confidence 4) [35B96C36] (AR v1)
Track 2 accurately ripped (confidence 4) [037E7A86] (AR v1)
Track 3 accurately ripped (confidence 4) [B2AF0546] (AR v1)
Track 4 accurately ripped (confidence 4) [76958784] (AR v1)
Track 5 accurately ripped (confidence 4) [A745AB93] (AR v1)
Track 6 accurately ripped (confidence 4) [1AEA0EE6] (AR v1)
Track 7 accurately ripped (confidence 4) [8A13FEA2] (AR v1)
Track 8 accurately ripped (confidence 4) [A4B59D22] (AR v1)
Track 9 accurately ripped (confidence 4) [09BF6A5A] (AR v1)
Track 10 accurately ripped (confidence 4) [07AC3CCF] (AR v1)
Track 11 accurately ripped (confidence 4) [5D3D6D26] (AR v1)
Track 12 accurately ripped (confidence 4) [24133407] (AR v1)
Track 13 accurately ripped (confidence 3) [4F7BC255] (AR v1)

All tracks accurately ripped

End of status report

–– CUETools DB Plugin V2.1.3

[CTDB TOCID: z_7Ofbg5XJD1CqpHaojp1gS6p5Y-] found
[cb8aa13b] (3/3) Accurately ripped


==== Log checksum 19AFE837ED4ECF2655737F66BE32326C961138B47888D9D9C16DA13D3F287E65 ====

Manfred Mann's Earth Band - Bootleg Archives: Volume 1-5 (2009) {5CD Box Set}

Track List CD4 - Volume 4. Live In Hell, Norway, 10 September 1999:

01. (I'll Give You) Shelter From The Storm [0:09:39.18]
02. Castles Burning [0:06:52.18]
03. Martha's Madman [0:10:37.15]
04. Don't Kill It Carol [0:06:25.02]
05. Angels At My Gate [0:03:45.28]
06. The Times They Are A-Changin' [0:06:05.05]
07. Demolition Man [0:07:57.06]
08. (She Was) Blinded By The Light [0:11:50.29]
09. Redemption Song [0:05:17.73]
10. Mighty Quinn [0:03:29.62]

Exact Audio Copy V1.0 beta 3 from 29. August 2011

EAC extraction logfile from 17. May 2013, 12:34

Manfred Mann's Earth Band / Volume 4. Live In Hell, 1999

Used drive : HL-DT-STDVDRAM GH22NS50 Adapter: 2 ID: 1

Read mode : Secure
Utilize accurate stream : Yes
Defeat audio cache : No
Make use of C2 pointers : Yes

Read offset correction : 667
Overread into Lead-In and Lead-Out : No
Fill up missing offset samples with silence : Yes
Delete leading and trailing silent blocks : No
Null samples used in CRC calculations : Yes
Used interface : Native Win32 interface for Win NT & 2000

Used output format : User Defined Encoder
Selected bitrate : 896 kBit/s
Quality : High
Add ID3 tag : Yes
Command line compressor : C:\MMProgram\Exact Audio Copy\FLAC\FLAC.EXE
Additional command line options : -6 -V -T "ARTIST=%artist%" -T "TITLE=%title%" -T "ALBUM=%albumtitle%" -T "DATE=%year%" -T "TRACKNUMBER=%tracknr%" -T "GENRE=%genre%" -T "COMMENT=%comment%" -T "BAND=%albuminterpret%" -T "ALBUMARTIST=%albuminterpret%" -T "COMPOSER=%composer%" %haslyrics%–tag-from-file=LYRICS="%lyricsfile%"%haslyrics% -T "DISCNUMBER=%cdnumber%" -T "TOTALDISCS=%totalcds%" -T "TOTALTRACKS=%numtracks%" %hascover%–picture="%coverfile%"%hascover% %source% -o %dest%


TOC of the extracted CD

Track | Start | Length | Start sector | End sector
––––––––––––––––––––––––––––-
1 | 0:00.00 | 9:39.18 | 0 | 43442
2 | 9:39.18 | 6:52.18 | 43443 | 74360
3 | 16:31.36 | 10:37.15 | 74361 | 122150
4 | 27:08.51 | 6:25.02 | 122151 | 151027
5 | 33:33.53 | 3:45.28 | 151028 | 167930
6 | 37:19.06 | 6:05.05 | 167931 | 195310
7 | 43:24.11 | 7:57.06 | 195311 | 231091
8 | 51:21.17 | 11:50.29 | 231092 | 284370
9 | 63:11.46 | 5:17.73 | 284371 | 308218
10 | 68:29.44 | 3:29.62 | 308219 | 323955


Range status and errors

Selected range

Filename C:\mm\Manfred Mann's Earth Band\2009 - Bootleg Archives Volume 1-5\Volume 4 - Live In Hell (1999)\Manfred Mann's Earth Band - Volume 4. Live In Hell, 1999.wav

Peak level 100.0 %
Extraction speed 6.6 X
Range quality 100.0 %
Test CRC 1E463CB6
Copy CRC 1E463CB6
Copy OK

No errors occurred


AccurateRip summary

Track 1 accurately ripped (confidence 4) [CB87996F] (AR v1)
Track 2 accurately ripped (confidence 4) [168E966D] (AR v1)
Track 3 accurately ripped (confidence 4) [CAC427F5] (AR v1)
Track 4 accurately ripped (confidence 4) [66E3116E] (AR v1)
Track 5 accurately ripped (confidence 4) [87087D9C] (AR v1)
Track 6 accurately ripped (confidence 4) [E83CF298] (AR v1)
Track 7 accurately ripped (confidence 4) [D0BD37E9] (AR v1)
Track 8 accurately ripped (confidence 4) [EF953A04] (AR v1)
Track 9 accurately ripped (confidence 4) [375F4EC2] (AR v1)
Track 10 accurately ripped (confidence 4) [251FCB0C] (AR v1)

All tracks accurately ripped

End of status report

–– CUETools DB Plugin V2.1.3

[CTDB TOCID: h1Oej2UKO1_NS4CzfDSbw6qaAaU-] found
[eefc2d2e] (4/5) Accurately ripped
[fa57fd39] (1/5) Accurately ripped


==== Log checksum D8DC14DB26B7F17D54382D6157690AB075ADA0A136CC3A2CC82507D9BD32BC87 ====

Manfred Mann's Earth Band - Bootleg Archives: Volume 1-5 (2009) {5CD Box Set}

Track List CD5 - Volume 5. Live In Markranstadt, Germany, 23 June 2007:

01. Spirits In The Night [0:05:58.56]
02. Castles Burning [0:08:25.65]
03. Martha's Madman [0:10:34.66]
04. Captain Bobby Stout [0:06:59.22]
05. Dancing In The Dark / House OfThe Rising Sun [0:13:26.72]
06. Redemption Song [0:05:13.69]
07. Demolition Man [0:08:27.30]
08. Don't Kill It Carol [0:08:17.21]
09. Davy's On The Road Again [0:11:34.49]

Exact Audio Copy V1.0 beta 3 from 29. August 2011

EAC extraction logfile from 17. May 2013, 11:47

Manfred Mann's Earth Band / Volume 5. Live In Markranstadt (2007)

Used drive : HL-DT-STDVDRAM GH22NS50 Adapter: 2 ID: 1

Read mode : Secure
Utilize accurate stream : Yes
Defeat audio cache : No
Make use of C2 pointers : Yes

Read offset correction : 667
Overread into Lead-In and Lead-Out : No
Fill up missing offset samples with silence : Yes
Delete leading and trailing silent blocks : No
Null samples used in CRC calculations : Yes
Used interface : Native Win32 interface for Win NT & 2000

Used output format : User Defined Encoder
Selected bitrate : 896 kBit/s
Quality : High
Add ID3 tag : Yes
Command line compressor : C:\MMProgram\Exact Audio Copy\FLAC\FLAC.EXE
Additional command line options : -6 -V -T "ARTIST=%artist%" -T "TITLE=%title%" -T "ALBUM=%albumtitle%" -T "DATE=%year%" -T "TRACKNUMBER=%tracknr%" -T "GENRE=%genre%" -T "COMMENT=%comment%" -T "BAND=%albuminterpret%" -T "ALBUMARTIST=%albuminterpret%" -T "COMPOSER=%composer%" %haslyrics%–tag-from-file=LYRICS="%lyricsfile%"%haslyrics% -T "DISCNUMBER=%cdnumber%" -T "TOTALDISCS=%totalcds%" -T "TOTALTRACKS=%numtracks%" %hascover%–picture="%coverfile%"%hascover% %source% -o %dest%


TOC of the extracted CD

Track | Start | Length | Start sector | End sector
––––––––––––––––––––––––––––-
1 | 0:00.00 | 5:58.56 | 0 | 26905
2 | 5:58.56 | 8:25.65 | 26906 | 64845
3 | 14:24.46 | 10:34.66 | 64846 | 112461
4 | 24:59.37 | 6:59.22 | 112462 | 143908
5 | 31:58.59 | 13:26.72 | 143909 | 204430
6 | 45:25.56 | 5:13.69 | 204431 | 227974
7 | 50:39.50 | 8:27.30 | 227975 | 266029
8 | 59:07.05 | 8:17.21 | 266030 | 303325
9 | 67:24.26 | 11:34.49 | 303326 | 355424


Range status and errors

Selected range

Filename C:\mm\Manfred Mann's Earth Band\2009 - Bootleg Archives Volume 1-5\Volume 5 - Live In Markranstadt (2007)\Manfred Mann's Earth Band - Volume 5. Live In Markranstadt (2007).wav

Peak level 100.0 %
Extraction speed 7.3 X
Range quality 100.0 %
Test CRC B4CB3B73
Copy CRC B4CB3B73
Copy OK

No errors occurred


AccurateRip summary

Track 1 accurately ripped (confidence 4) [33F147F4] (AR v1)
Track 2 accurately ripped (confidence 4) [D7017391] (AR v1)
Track 3 accurately ripped (confidence 4) [70EAABCA] (AR v1)
Track 4 accurately ripped (confidence 4) [27F4A921] (AR v1)
Track 5 accurately ripped (confidence 4) [3B10F73C] (AR v1)
Track 6 accurately ripped (confidence 4) [DCEB6AB4] (AR v1)
Track 7 accurately ripped (confidence 4) [5479F8D4] (AR v1)
Track 8 accurately ripped (confidence 4) [0365A0AC] (AR v1)
Track 9 accurately ripped (confidence 3) [BD9BEFAF] (AR v1)

All tracks accurately ripped

End of status report

–– CUETools DB Plugin V2.1.3

[CTDB TOCID: eZlGe3fiK7ygRzA_X_R12XcrleE-] found
[872e9465] (3/3) Accurately ripped


==== Log checksum E01D4B8E37DC966DDFF3495A71E5E8F2BF0F4AC86D74041EC779DC461DE1623E ====

Manfred Mann's Earth Band - Bootleg Archives: Volume 1-5 (2009) {5CD Box Set}


All thanks go to sergych

>>> Manfred Mann in my Blog <<<

DOWNLOAD: