Subcategories

Manowar - Kings Of Metal (1988) [Japanese 1st Press, 22P2-2788]

Posted By: apocalipsys2014
Manowar - Kings Of Metal (1988) [Japanese 1st Press, 22P2-2788]

Manowar - Kings Of Metal (1988)
Year & Label: 1988 Atlantic/MMG Inc. | CD#: 22P2-2788
Flac (images) | Artwork (JPEG, 300 dpi) | File-hosts: HotFile & FileServe
Heavy Metal/Hard Rock | FLAC: 320 MB | Artwork: 30 MB | 5% WinRAR Recovery

EAC Secure-rip with LOG+CUE+COVERS | Source: torrent
Japanese 1st Press with bonus track

On their anthemic mission statement "Kings of Metal" Manowar once again proclaim their metal superiority thusly: "Other bands play, Manowar kills." The twin sentiments of the group's metal mastery and the majesty of medieval heroism in battle are repeated on their sixth full-length release, Kings of Metal. There aren't too many surprises on the disc, with the possible exception of bassist Joey DeMaio's blinding 64th-note bass playing on a reworking of Russian classicist Rimsky-Korsakov's "Flight of the Bumblebee" entitled "Sting of the Bumblebee." Considered by some fans to be a classic of its own, the 1988 release has quite a few ballads, though speedier tracks like "Wheels of Fire" demonstrate the groups talents best. Besides their refreshingly totalistic loyalty to form, Manowar's most admirable trait is their prodigious metal musicianship.

~ AllMusic.com
Manowar official homepage
Manowar at Wikipedia
Manowar at MySpace

Musicians:

Vocals : Eric Adams
Guitar : Ross the Boss
Bass : Joey DeMaio
Drums : Scott Columbus

All songs written and produced by Manowar.
Recorded and mixed at Universal Recording, Chicago.
Digital mastering at MasterDick, NY.

Track List:

01. Wheels Of Fire [4:11]
02. Kings Of Metal [3:45]
03. Heart Of Steel [5:11]
04. Sting Of The Bumblebee [2:50]
05. The Crow And The Ring (Lament Of The Kings) [4:50]
06. Kingdom Come [3:56]
07. Pleasure Slave (bonus track) [5:38]
08. Hail And Kill [5:59]
09. The Warrior's Prayer [4:20]
10. Blood Of The King [7:31]

Exact Audio Copy V0.99 prebeta 4 from 23. January 2008

EAC extraction logfile from 26. October 2010, 14:57

Manowar / Kings Of Metal (22P2-2788)

Used drive : PLEXTOR DVDR PX-760A Adapter: 0 ID: 0

Read mode : Secure
Utilize accurate stream : Yes
Defeat audio cache : Yes
Make use of C2 pointers : No

Read offset correction : 30
Overread into Lead-In and Lead-Out : No
Fill up missing offset samples with silence : Yes
Delete leading and trailing silent blocks : No
Null samples used in CRC calculations : Yes
Used interface : Installed external ASPI interface

Used output format : Internal WAV Routines
Sample format : 44.100 Hz; 16 Bit; Stereo


TOC of the extracted CD

Track | Start | Length | Start sector | End sector
––––––––––––––––––––––––––––-
1 | 0:00.00 | 4:10.57 | 0 | 18806
2 | 4:10.57 | 3:45.18 | 18807 | 35699
3 | 7:56.00 | 5:10.55 | 35700 | 59004
4 | 13:06.55 | 2:49.50 | 59005 | 71729
5 | 15:56.30 | 4:50.20 | 71730 | 93499
6 | 20:46.50 | 3:56.15 | 93500 | 111214
7 | 24:42.65 | 5:38.00 | 111215 | 136564
8 | 30:20.65 | 5:58.70 | 136565 | 163484
9 | 36:19.60 | 4:20.02 | 163485 | 182986
10 | 40:39.62 | 7:31.03 | 182987 | 216814


Range status and errors

Selected range

Filename D:\bki71\Manowar\Manowar - Kings Of Metal (22P2-2788).wav

Peak level 97.3 %
Range quality 100.0 %
Test CRC C09FD813
Copy CRC C09FD813
Copy OK

No errors occurred


AccurateRip summary

Track 1 accurately ripped (confidence 3) [F3738A44]
Track 2 accurately ripped (confidence 3) [F7D9932B]
Track 3 accurately ripped (confidence 3) [178DE090]
Track 4 accurately ripped (confidence 3) [9AD00645]
Track 5 accurately ripped (confidence 3) [A7BB1BAE]
Track 6 accurately ripped (confidence 3) [03529B10]
Track 7 accurately ripped (confidence 3) [6E354F20]
Track 8 accurately ripped (confidence 3) [E5F3976E]
Track 9 accurately ripped (confidence 3) [21492D2D]
Track 10 accurately ripped (confidence 3) [354B3CC2]

All tracks accurately ripped

End of status report


FLAC, image + artwork at HotFile.com
Part 1
Part 2
Part 3
Part 4

––––-

FLAC, image + artwork at FileServe
Part 1
Part 2
Part 3
Part 4

All links are interchangeable…
Not my rip, not my scan-job. Thx very much to the original uploader bki71!
5% WinRar Recovery Record for all files.
Try before you might buy. Support the artists you like and buy their stuff whenever you can afford it.

***