Subcategories

Manowar - Hell Stage Live - 4 Bonus CDS (1999)

Posted By: Necromandus
Manowar - Hell Stage Live - 4 Bonus CDS (1999)

Manowar - Hell Stage Live - 4 Bonus CDS (1999)
EAC Rip | FLAC, IMG+CUE+LOG | 450 MB | MP3 CBR 320 Kbps | 180 MB | Complete HQ Scans | PNG -> 60 MB
Heavy Metal | Label: Nuclear Blast/Metalblade Records | RAR 3% Rec. | FilePost
… 4 bonus CDS from international (France, Spain, Germany, Portugal) releases of 'Hell On Stage Live' album. Not sold separately.

For some odd reason Manowar decided to release a second live album hot on the heels of their first "Hell On Wheels" one with virtually no "inbetween" time or a new album - total overkill you would say and in any other case this would be true, not so however for "Hell On Stage".

First of all - the setlist is compromised of a bunch of fan-classics and "forgotten" songs - with many a jewel such as the amazing "Bridge Of Death", "Dark Avenger" and "March For Revenge". Secondly - none of the songs on this album is featured on their previous live release - making this a nice additional release and thirdly - the sound on this live release is a LOT stronger than on the previous one.

Basically - I can say that this is one of my favourite live discs of all time - putting together an absolute handfull of classics with great sound. The only complaint is that instead of "the warriors prayer" or "sting of the bumblebee" - I would have rather had "Pleasure Slave", "Fast Taker" or "Secrets Of Steel" on there - but now that Manowar are on a roll with their live releases - there's not a lot of doubt that those songs will one day resurface on a live album / dvd as well.

~ www.metal-archives.com, about 'Hell On Stage Live' album

Manowar - Hell Stage Live - 4 Bonus CDS (1999)

Manowar - Live In France (1999, Bonus CDS)
EAC Rip | FLAC, IMG+CUE+LOG | 130 MB | MP3 CBR 320 Kbps | 50 MB | Complete HQ Scans | PNG -> 15 MB
Label: Nuclear Blast #3048905 | RAR 3% Rec. | FilePost

Tracklist :

1. Lady Marmalade (Voulez-Vous Coucher Avec Moi Ce Soir?) - 4:11
2. Metal Warriors - 3:55
3. Kill With Power - 4:50
4. Courage (French Studio Version) - 4:06

All songs recorded live in France on The Hell On Stage World Tour
Except "Courage" recorded at Versailles Station Studios by Philippe Besombe
All songs written by Joey DeMaio except Lady Marmalade written by Bob Crew and Kenny Nolan.
"Courage" (French version) translated by Olivier Gamier assisted by Renaud Hanson

Exact Audio Copy V1.0 beta 3 from 29. August 2011

EAC extraction logfile from 9. February 2013, 12:48

Manowar / Live In France (Bonus CDS)

Used drive : PIONEER DVD-RW DVR-219L Adapter: 1 ID: 0

Read mode : Secure
Utilize accurate stream : Yes
Defeat audio cache : Yes
Make use of C2 pointers : No

Read offset correction : 6
Overread into Lead-In and Lead-Out : No
Fill up missing offset samples with silence : Yes
Delete leading and trailing silent blocks : No
Null samples used in CRC calculations : Yes
Used interface : Native Win32 interface for Win NT & 2000

Used output format : Internal WAV Routines
Sample format : 44.100 Hz; 16 Bit; Stereo


TOC of the extracted CD

Track | Start | Length | Start sector | End sector
––––––––––––––––––––––––––––-
1 | 0:00.00 | 4:10.42 | 0 | 18791
2 | 4:10.42 | 3:54.68 | 18792 | 36409
3 | 8:05.35 | 4:50.10 | 36410 | 58169
4 | 12:55.45 | 4:06.12 | 58170 | 76631


Range status and errors

Selected range

Filename D:\.www.AvaxHome.ru\Manowar - Live In France (Bonus CDS).wav

Peak level 97.9 %
Extraction speed 1.2 X
Range quality 100.0 %
Test CRC 58104FC3
Copy CRC 58104FC3
Copy OK

No errors occurred


AccurateRip summary

Track 1 accurately ripped (confidence 3) [871C66D2] (AR v1)
Track 2 accurately ripped (confidence 3) [37E5242A] (AR v1)
Track 3 accurately ripped (confidence 3) [70DE1190] (AR v1)
Track 4 accurately ripped (confidence 3) [9EC86600] (AR v1)

All tracks accurately ripped

End of status report

–– CUETools DB Plugin V2.1.4

[CTDB TOCID: X36e1VIvsqQa6EauZMRKb.JfMkk-] found
Submit result: X36e1VIvsqQa6EauZMRKb.JfMkk- has been confirmed
Track | CTDB Status
1 | (3/3) Accurately ripped
2 | (3/3) Accurately ripped
3 | (3/3) Accurately ripped
4 | (3/3) Accurately ripped


==== Log checksum 5F5E3152DF742255F523C68ED942A7FCE01FA80C1F02E60BDCDFD97667F90533 ====




Manowar - Hell Stage Live - 4 Bonus CDS (1999)

Manowar - Live In Germany (1999, Bonus CDS)
EAC Rip | FLAC, IMG+CUE+LOG | 110 MB | MP3 CBR 320 Kbps | 40 MB | Complete HQ Scans | PNG -> 15 MB
Label: Metalblade Records #3984-14254-2BD | RAR 3% Rec. | FilePost

Tracklist :

1. Kings Of Metal (Recorded In Lichtenfels Germany) - 4:41
2. Herz aus Stahl (Intro Section Recorded In Chemnitz Germany, Main Section Recorded In Schwaebisch Hall Germany) - 5:49
3. Metal Warriors Recorded In Osnabrueck Germany) - 4:14

All songs recorded live In Germany On The Hell On Stage World Tour
All songs written by Joey DeMaio except Kings Of Metal written By Joey DeMaio and Ross The Boss

Exact Audio Copy V1.0 beta 3 from 29. August 2011

EAC extraction logfile from 4. July 2012, 21:35

Manowar / Live In Germany (Bonus CDS)

Used drive : PIONEER DVD-RW DVR-219L Adapter: 1 ID: 0

Read mode : Secure
Utilize accurate stream : Yes
Defeat audio cache : Yes
Make use of C2 pointers : No

Read offset correction : 6
Overread into Lead-In and Lead-Out : No
Fill up missing offset samples with silence : Yes
Delete leading and trailing silent blocks : No
Null samples used in CRC calculations : Yes
Used interface : Native Win32 interface for Win NT & 2000

Used output format : Internal WAV Routines
Sample format : 44.100 Hz; 16 Bit; Stereo


TOC of the extracted CD

Track | Start | Length | Start sector | End sector
––––––––––––––––––––––––––––-
1 | 0:00.00 | 4:40.40 | 0 | 21039
2 | 4:40.40 | 5:49.22 | 21040 | 47236
3 | 10:29.62 | 4:13.70 | 47237 | 66281


Range status and errors

Selected range

Filename D:\.www.AvaxHome.ru\Manowar - Live In Germany (Bonus CDS).wav

Peak level 98.9 %
Extraction speed 5.6 X
Range quality 99.9 %
Test CRC BE8867D1
Copy CRC BE8867D1
Copy OK

No errors occurred


AccurateRip summary

Track 1 accurately ripped (confidence 6) [48D18829] (AR v1)
Track 2 accurately ripped (confidence 6) [0E9CC240] (AR v1)
Track 3 accurately ripped (confidence 6) [D9857A77] (AR v1)

All tracks accurately ripped

End of status report

–– CUETools DB Plugin V2.1.3

[CTDB TOCID: .T7Wd33lt2d0GgQepzAFh_hItVA-] found, Submit result: .T7Wd33lt2d0GgQepzAFh_hItVA- has been confirmed
[da4e8f82] (04/10) Differs in 27 samples @00:00:27-00:00:29
[54ac5ddc] (06/10) Accurately ripped
You can use CUETools to repair this rip.


==== Log checksum 35E27F18E0ACC28BF787F698305BBEBCCA951BEDD126989467D9E7437827A550 ====






Manowar - Hell Stage Live - 4 Bonus CDS (1999)

Manowar - Live In Portugal (1999, Bonus CDS)
EAC Rip | FLAC, IMG+CUE+LOG | 110 MB | MP3 CBR 320 Kbps | 50 MB | Complete HQ Scans | PNG -> 15 MB
Label: Nuclear Blast #NB 0405-2 | RAR 3% Rec. | FilePost

Tracklist :

1. Carry On (Recorded in Lisbon Portugal, 19.11.1998) - 4:15
2. Kill With Power (Recorded in Porto Portugal, 18.11.1998) - 3:32
3. King Of Metal (Recorded in Lisbon Portugal, 19.11.1998) - 4:05

All songs recorded live in Portugal on The Hell On Stage World Tour
All songs written by Joey DeMaio except Kings Of Metal written by Joey DeMaio and Ross The Boss.

Exact Audio Copy V1.0 beta 3 from 29. August 2011

EAC extraction logfile from 9. February 2013, 13:37

Manowar / Live In Portugal (Bonus CDS)

Used drive : PIONEER DVD-RW DVR-219L Adapter: 1 ID: 0

Read mode : Secure
Utilize accurate stream : Yes
Defeat audio cache : Yes
Make use of C2 pointers : No

Read offset correction : 6
Overread into Lead-In and Lead-Out : No
Fill up missing offset samples with silence : Yes
Delete leading and trailing silent blocks : No
Null samples used in CRC calculations : Yes
Used interface : Native Win32 interface for Win NT & 2000

Used output format : Internal WAV Routines
Sample format : 44.100 Hz; 16 Bit; Stereo


TOC of the extracted CD

Track | Start | Length | Start sector | End sector
––––––––––––––––––––––––––––-
1 | 0:00.00 | 4:14.52 | 0 | 19101
2 | 4:14.52 | 3:31.45 | 19102 | 34971
3 | 7:46.22 | 4:05.03 | 34972 | 53349


Range status and errors

Selected range

Filename D:\.www.AvaxHome.ru\Manowar - Live In Portugal (Bonus CDS).wav

Peak level 96.3 %
Extraction speed 5.1 X
Range quality 100.0 %
Test CRC 60DF4EA4
Copy CRC 60DF4EA4
Copy OK

No errors occurred


AccurateRip summary

Track 1 accurately ripped (confidence 2) [C786363B] (AR v1)
Track 2 accurately ripped (confidence 2) [4036C4EC] (AR v1)
Track 3 accurately ripped (confidence 2) [741A0C64] (AR v1)

All tracks accurately ripped

End of status report

–– CUETools DB Plugin V2.1.4

[CTDB TOCID: 4a6dtJqiMg76GNDAyDlta4gBu6g-] found
Submit result: 4a6dtJqiMg76GNDAyDlta4gBu6g- has been confirmed
Track | CTDB Status
1 | (2/2) Accurately ripped
2 | (2/2) Accurately ripped
3 | (2/2) Accurately ripped


==== Log checksum C846CD7124F5D40BDDCC7589E7BB4AFE528AAB7F8FCB1F5A943D52C193EDFBEE ====






Manowar - Hell Stage Live - 4 Bonus CDS (1999)

Manowar - Live In Spain (1999, Bonus CDS)
EAC Rip | FLAC, IMG+CUE+LOG | 130 MB | MP3 CBR 320 Kbps | 40 MB | Complete HQ Scans | PNG -> 15 MB
Label: Nuclear Blast ‎#NB 379-2 | RAR 3% Rec. | FilePost

Tracklist :

1. Manowar (Recorded Live in Madrid Spain 24.06.98) - 4:39
2. Kill With Power (Recorded Live in Murcia Spain, 26.06.98) - 4:21
3. Hail And Kill (Recorded Live in Madrid Spain 24.06.98) - 7:24

All songs recorded live In Spain On The Hell On Stage World Tour

Exact Audio Copy V1.0 beta 3 from 29. August 2011

Отчёт EAC об извлечении, выполненном 30. октября 2011, 18:01

Manowar / live in spain

Дисковод: TSSTcorpCDDVDW SH-S222A Adapter: 4 ID: 1

Режим чтения : Достоверность
Использование точного потока : Да
Отключение кэша аудио : Да
Использование указателей C2 : Нет

Коррекция смещения при чтении : 6
Способность читать области Lead-in и Lead-out : Нет
Заполнение пропущенных сэмплов тишиной : Да
Удаление блоков с тишиной в начале и конце : Нет
При вычислениях CRC использовались нулевые сэмплы : Да
Интерфейс : Встроенный Win32-интерфейс для Win NT/2000

Выходной формат : Пользовательский кодировщик
Выбранный битрейт : 1024 kBit/s
Качество : Высокий
Добавление ID3-тега : Нет
Утилита сжатия : C:\Program Files\Exact Audio Copy\FLAC\FLAC.EXE
Дополнительные параметры : -6 -V -T "ARTIST=%artist%" -T "TITLE=%title%" -T "ALBUM=%albumtitle%" -T "DATE=%year%" -T "TRACKNUMBER=%tracknr%" -T "GENRE=%genre%" -T "COMMENT=%comment%" -T "BAND=%albuminterpret%" -T "ALBUMARTIST=%albuminterpret%" -T "COMPOSER=%composer%" %haslyrics%–tag-from-file=LYRICS="%lyricsfile%"%haslyrics% -T "DISCNUMBER=%cdnumber%" -T "TOTALDISCS=%totalcds%" -T "TOTALTRACKS=%numtracks%" %hascover%–picture="%coverfile%"%hascover% %source% -o %dest%


TOC извлечённого CD

Трек | Старт | Длительность | Начальный сектор | Конечный сектор
––––––––––––––––––––––––––––––––––-
1 | 0:00.00 | 4:38.50 | 0 | 20899
2 | 4:38.50 | 4:21.00 | 20900 | 40474
3 | 8:59.50 | 7:23.55 | 40475 | 73754


Характеристики диапазона извлечения и сообщения об ошибках

Выбранный диапазон

Имя файла D:\Новая папка\manowar - live in spain\Manowar - live in spain.wav

Пиковый уровень 100.0 %
Скорость извлечения 2.1 X
Качество диапазона 99.9 %
CRC теста 2075F8EE
CRC копии 2075F8EE
Копирование… OK

Ошибок не произошло


AccurateRip: сводка

Трек 1 : извлечено точно (доверие 2) [C76C9CDC] (AR v1)
Трек 2 : извлечено точно (доверие 2) [511DE4F0] (AR v1)
Трек 3 : извлечено точно (доверие 2) [AEF38A6A] (AR v1)

Все треки извлечены точно

Конец отчёта

==== Контрольная сумма отчёта EF092098FB94321D7D4809015E2D0E9ACAEE2AD1A0D09C57FF973483AD5294C4 ====
Lossless (FLAC)* + All Covers.png
Live In France
Live In Germany
Live In Portugal
Live In Spain


Lossy HQ (320 Kbps CBR)
Live In France
Live In Germany
Live In Portugal
Live In Spain

* Original CD -> EAC image, embedded cuesheet & more, foobar2000 ready, etc.
(all CUEs, LOGs and other technical info includes in the internal "CD_Support" archive).

Please, do not write these links at any web pages. Enjoy & keep the files alive!