Subcategories

Manowar - Kings Of Metal (1988) (Germany 1st Press CD)

Posted By: Necromandus
Manowar - Kings Of Metal (1988) (Germany 1st Press CD)

Manowar - Kings Of Metal (1988)
EAC Rip | FLAC, IMG+CUE+LOG | 350 MB | MP3 CBR 320 Kbps | 150 MB | Complete HQ Scans | PNG -> 30 MB
Heavy Metal | Label: Atlantic Recording | Catalog Number: 781 930-2 | RAR 3% Rec. | FilePost
… Germany 1st Press CD …

On their anthemic mission statement "Kings of Metal" Manowar once again proclaim their metal superiority thusly: "Other bands play, Manowar kills." The twin sentiments of the group's metal mastery and the majesty of medieval heroism in battle are repeated on their sixth full-length release, Kings of Metal. There aren't too many surprises on the disc, with the possible exception of bassist Joey DeMaio's blinding 64th-note bass playing on a reworking of Russian classicist Rimsky-Korsakov's "Flight of the Bumblebee" entitled "Sting of the Bumblebee." Considered by some fans to be a classic of its own, the 1988 release has quite a few ballads, though speedier tracks like "Wheels of Fire" demonstrate the groups talents best. Besides their refreshingly totalistic loyalty to form, Manowar's most admirable trait is their prodigious metal musicianship.

~ AllMusic.com
Tracklist :

1. Wheels Of Fire - 4:10
2. Kings Of Metal - 3:45
3. Heart Of Steel - 5:11
4. Sting Of The Bumblebee - 2:50
5. The Crown And The Ring (Lament Of The Kings) - 4:50
6. Kingdom Come - 3:56
7. Pleasure Slave - 5:38
8. Hail And Kill - 5:59
9. The Warriors Prayer - 4:20
10. Blood Of The Kings - 7:30

Exact Audio Copy V1.0 beta 3 from 29. August 2011

EAC extraction logfile from 7. July 2012, 9:05

Manowar / Kings Of Metal (Atlantic, 781 930-2)

Used drive : PIONEER DVD-RW DVR-219L Adapter: 1 ID: 0

Read mode : Secure
Utilize accurate stream : Yes
Defeat audio cache : Yes
Make use of C2 pointers : No

Read offset correction : 6
Overread into Lead-In and Lead-Out : No
Fill up missing offset samples with silence : Yes
Delete leading and trailing silent blocks : No
Null samples used in CRC calculations : Yes
Used interface : Native Win32 interface for Win NT & 2000

Used output format : Internal WAV Routines
Sample format : 44.100 Hz; 16 Bit; Stereo


TOC of the extracted CD

Track | Start | Length | Start sector | End sector
––––––––––––––––––––––––––––-
1 | 0:00.32 | 4:10.28 | 32 | 18809
2 | 4:10.60 | 3:45.10 | 18810 | 35694
3 | 7:55.70 | 5:10.55 | 35695 | 58999
4 | 13:06.50 | 2:49.50 | 59000 | 71724
5 | 15:56.25 | 4:50.20 | 71725 | 93494
6 | 20:46.45 | 3:56.15 | 93495 | 111209
7 | 24:42.60 | 5:38.00 | 111210 | 136559
8 | 30:20.60 | 5:58.70 | 136560 | 163479
9 | 36:19.55 | 4:20.10 | 163480 | 182989
10 | 40:39.65 | 7:29.45 | 182990 | 216709


Range status and errors

Selected range

Filename D:\.www.AvaxHome.ru\Manowar - Kings Of Metal (Atlantic, 781 930-2).wav

Peak level 97.3 %
Extraction speed 6.8 X
Range quality 100.0 %
Test CRC C38EB867
Copy CRC C38EB867
Copy OK

No errors occurred


AccurateRip summary

Track 1 accurately ripped (confidence 9) [6C9C0C25] (AR v2)
Track 2 accurately ripped (confidence 9) [797FC86D] (AR v2)
Track 3 accurately ripped (confidence 9) [55338696] (AR v2)
Track 4 accurately ripped (confidence 9) [7C69F84B] (AR v2)
Track 5 accurately ripped (confidence 9) [41BD0F20] (AR v2)
Track 6 accurately ripped (confidence 9) [0F2A0C83] (AR v2)
Track 7 accurately ripped (confidence 9) [3E7B1DEB] (AR v2)
Track 8 accurately ripped (confidence 9) [440A3DFD] (AR v2)
Track 9 accurately ripped (confidence 9) [F90CD786] (AR v2)
Track 10 accurately ripped (confidence 9) [6E727B95] (AR v2)

All tracks accurately ripped

End of status report

–– CUETools DB Plugin V2.1.3

[CTDB TOCID: 7.NnUvRFkchBiZ43VghvacdD3Ws-] found, Submit result: discs with pregaps not supported in this protocol version
[6b34c19d] (137/137) Differs in 0 samples @
You can use CUETools to repair this rip.


==== Log checksum 889D3A759255EB68E74AF1EFF73B1F123DE9DC37CC09F79E687734658A0907AF ====

–––––––––––-

DON'T MODIFY THIS FILE

–––––––––––-

PERFORMER: auCDtect Task Manager, ver. 1.5.1RC4 build 1.5.1.5
Copyright © 2008-2010 y-soft. All rights reserved
http://y-soft.org

ANALYZER: auCDtect: CD records authenticity detector, version 0.8.2
Copyright © 2004 Oleg Berngardt. All rights reserved.
Copyright © 2004 Alexander Djourik. All rights reserved.


FILE: Manowar - Kings Of Metal (Atlantic, 781 930-2).wav
Size: 509701964 Hash: BEA30599828934B682FF312E1173E792 Accuracy: -m0
Conclusion: CDDA 100%
Signature: 5A761A270106918926D4BCCE050E8C21FEBD8D91

================================================================================

foobar2000 1.1.3 / Dynamic Range Meter 1.1.1
log date: 2012-07-12 09:01:18

––––––––––––––––––––––––––––––––––––––––
Analyzed: Manowar / Kings Of Metal (Atlantic, 781 930-2)
––––––––––––––––––––––––––––––––––––––––

DR Peak RMS Duration Track
––––––––––––––––––––––––––––––––––––––––
DR10 -1.01 dB -13.28 dB 4:10 01-Wheels Of Fire
DR11 -1.34 dB -13.91 dB 3:45 02-Kings Of Metal
DR12 -1.43 dB -17.14 dB 5:11 03-Heart Of Steel
DR12 -0.31 dB -14.50 dB 2:50 04-Sting Of The Bumblebee
DR11 -2.01 dB -17.85 dB 4:50 05-The Crown And The Ring (Lament Of The Kings)
DR11 -0.41 dB -14.21 dB 3:56 06-Kingdom Come
DR10 -0.71 dB -13.29 dB 5:38 07-Pleasure Slave
DR11 -0.90 dB -14.10 dB 5:59 08-Hail And Kill
DR15 -0.23 dB -23.36 dB 4:20 09-The Warriors Prayer
DR12 -0.39 dB -14.60 dB 7:30 10-Blood Of The Kings
––––––––––––––––––––––––––––––––––––––––

Number of tracks: 10
Official DR value: DR11

Samplerate: 44100 Hz
Channels: 2
Bits per sample: 16
Bitrate: 1411 kbps
Codec: PCM
================================================================================

• Eric Adams - Vocals
• Ross the Boss - Guitars
• Joey DeMaio - Bass
• Scott Columbus - Drums

All songs written and produced by Manowar
Recorded and mixed at Universal Recording, Chicago
Digital mastering at Masterdisk, NY

Please, do not write these links at any web pages. Enjoy & keep the files alive!
* - EAC Image, standard LOG, embedded cuesheet, Foobar2000 ready
Huge thanks to my friend bigggwest for original CD!
Download lossless* (flac) + covers or mp3 via FilePost.com:
Lossless part1.rar | Lossless part2.rar | Lossless part3.rar
Covers.rar | Lossy HQ (320 Kbps CBR).rar