Subcategories

Manu Katche - Touchstone For Manu (2014) {ECM 2419}

Posted By: tiburon
Manu Katche - Touchstone For Manu (2014) {ECM 2419}

Manu Katche - Touchstone For Manu (2014) {ECM 2419}
EAC 1.0b3 | FLAC tracks level 8 | Cue+Log+M3U | Full Scans 300dpi | 356MB + 5% Recovery
MP3 CBR 320 Kbps | 135MB + 5% Recovery
Genre: Jazz, Fusion
Manu Katche - Touchstone For Manu (2014) {ECM 2419}

A specially-price limited edition compilation of Manu Katché on ECM. Here the French drummer is joined in performances of his tunes by an outstanding cast of soloists including Jan Garbarek, Tomasz Stanko, Nils Petter Molvӕr, Trygve Seim, Mathias Eick, Marcin Wasilewski, Tore Brunborg, and Jacob Young. Recorded 2004 -2012 in Oslo, New York and Pernes-les-Fontaines, and drawn from his widely acclaimed albums: Neighborhood (ECM1896), Playground (ECM 2016), Third Round (ECM 2156), Manu Katché (ECM 2284)
Track List
01. Song For Her 6:31
02. Number One 6:13
03. Take Off And Land 4:02
04. So Groovy 5:52
05. Morning Joy 5:29
06. Keep On Trippin' 5:32
07. Senses 4:12
08. Swing Piece 4:50
09. Running After Years 6:16
10. Slowing The Tides 5:35
11. Bliss 4:20

musicians
Manu Katché - drums
Mathias Eick - trumpet
Trygve Seim - tenor saxophone
Marcin Wasilewski - piano
Slawomir Kurkiewicz - double bass
Tomasz Stanko trumpet
Jan Garbarek - tenor saxophone
Mathias Eick - trumpet
Tore Brunborg - saxophones
Jason Rebello - piano
Pino Palladino - bass
Jacob Young - guitars
Nils Petter Molvær - trumpet, loops
Jim Watson - piano, Hammond B3 organ

Neighborhood (ECM 1896)
Playground (ECM 2016)
Third Round (ECM 2156)
Manu Katché (ECM 2284)

Produced by Manfred Eicher


Exact Audio Copy V1.0 beta 3 from 29. August 2011

EAC extraction logfile from 18. November 2014, 1:19

Manu Katche / Touchstone For Manu [ECM 2419]

Used drive : PLEXTOR DVDR PX-L890SA Adapter: 2 ID: 1

Read mode : Secure
Utilize accurate stream : Yes
Defeat audio cache : Yes
Make use of C2 pointers : No

Read offset correction : 6
Overread into Lead-In and Lead-Out : No
Fill up missing offset samples with silence : Yes
Delete leading and trailing silent blocks : No
Null samples used in CRC calculations : Yes
Used interface : Native Win32 interface for Win NT & 2000
Gap handling : Appended to previous track

Used output format : User Defined Encoder
Selected bitrate : 768 kBit/s
Quality : High
Add ID3 tag : No
Command line compressor : C:\Program Files (x86)\Exact Audio Copy\FLAC\FLAC.EXE
Additional command line options : -8 -V -T "ARTIST=%artist%" -T "TITLE=%title%" -T "ALBUM=%albumtitle%" -T "DATE=%year%" -T "TRACKNUMBER=%tracknr%" -T "TOTALTRACKS=%numtracks%" -T "GENRE=%genre%" -T "ALBUMARTIST=%albumartist%" -T "ALBUM ARTIST=%albumartist%" -T "COMMENT=EAC Secure Mode, Test & Copy, AccurateRip, FLAC -8" %source%


TOC of the extracted CD

Track | Start | Length | Start sector | End sector
––––––––––––––––––––––––––––-
1 | 0:00.00 | 6:31.15 | 0 | 29339
2 | 6:31.15 | 6:13.43 | 29340 | 57357
3 | 12:44.58 | 4:02.37 | 57358 | 75544
4 | 16:47.20 | 5:52.45 | 75545 | 101989
5 | 22:39.65 | 5:29.58 | 101990 | 126722
6 | 28:09.48 | 5:32.48 | 126723 | 151670
7 | 33:42.21 | 4:12.49 | 151671 | 170619
8 | 37:54.70 | 4:50.30 | 170620 | 192399
9 | 42:45.25 | 6:16.40 | 192400 | 220639
10 | 49:01.65 | 5:35.54 | 220640 | 245818
11 | 54:37.44 | 4:20.65 | 245819 | 265383


Track 1

Filename G:\Flac Rips\01 - Song For Her.wav

Pre-gap length 0:00:02.00

Peak level 98.5 %
Extraction speed 3.8 X
Track quality 100.0 %
Test CRC 93D66DBF
Copy CRC 93D66DBF
Accurately ripped (confidence 11) [966EA80A] (AR v2)
Copy OK

Track 2

Filename G:\Flac Rips\02 - Number One.wav

Peak level 99.8 %
Extraction speed 4.4 X
Track quality 100.0 %
Test CRC DD51561D
Copy CRC DD51561D
Accurately ripped (confidence 11) [FB82EDA1] (AR v2)
Copy OK

Track 3

Filename G:\Flac Rips\03 - Take Off And Land.wav

Peak level 99.3 %
Extraction speed 4.6 X
Track quality 100.0 %
Test CRC 22931FB2
Copy CRC 22931FB2
Accurately ripped (confidence 11) [7E48F3B4] (AR v2)
Copy OK

Track 4

Filename G:\Flac Rips\04 - So Groovy.wav

Peak level 98.5 %
Extraction speed 5.1 X
Track quality 100.0 %
Test CRC 998663AC
Copy CRC 998663AC
Accurately ripped (confidence 11) [C6820FE3] (AR v2)
Copy OK

Track 5

Filename G:\Flac Rips\05 - Morning Joy.wav

Peak level 98.5 %
Extraction speed 5.6 X
Track quality 100.0 %
Test CRC 6B195930
Copy CRC 6B195930
Accurately ripped (confidence 11) [A22244B5] (AR v2)
Copy OK

Track 6

Filename G:\Flac Rips\06 - Keep On Trippin'.wav

Peak level 98.5 %
Extraction speed 5.0 X
Track quality 99.9 %
Test CRC 2E92F343
Copy CRC 2E92F343
Accurately ripped (confidence 11) [D4631DE9] (AR v2)
Copy OK

Track 7

Filename G:\Flac Rips\07 - Senses.wav

Peak level 98.5 %
Extraction speed 4.9 X
Track quality 99.9 %
Test CRC 29CB19D2
Copy CRC 29CB19D2
Accurately ripped (confidence 11) [7EB1D250] (AR v2)
Copy OK

Track 8

Filename G:\Flac Rips\08 - Swing Piece.wav

Peak level 98.5 %
Extraction speed 6.4 X
Track quality 100.0 %
Test CRC BA58D8F8
Copy CRC BA58D8F8
Accurately ripped (confidence 11) [B49CD503] (AR v2)
Copy OK

Track 9

Filename G:\Flac Rips\09 - Running After Years.wav

Peak level 96.2 %
Extraction speed 6.9 X
Track quality 100.0 %
Test CRC 841E4CFA
Copy CRC 841E4CFA
Accurately ripped (confidence 11) [7E11E52B] (AR v2)
Copy OK

Track 10

Filename G:\Flac Rips\10 - Slowing The Tides.wav

Peak level 96.3 %
Extraction speed 7.1 X
Track quality 100.0 %
Test CRC F3F4CC62
Copy CRC F3F4CC62
Accurately ripped (confidence 11) [4F58C5C7] (AR v2)
Copy OK

Track 11

Filename G:\Flac Rips\11 - Bliss.wav

Peak level 98.5 %
Extraction speed 7.1 X
Track quality 100.0 %
Test CRC 7ACE79C4
Copy CRC 7ACE79C4
Accurately ripped (confidence 11) [3E8E026E] (AR v2)
Copy OK


All tracks accurately ripped

No errors occurred

End of status report

==== Log checksum 58E4A63A919FD530F181D48F0605A50916BB9E71FB1778FEF4F88D072703724A ====


––––––––––––––––––––––––––––––––––––––––
Analyzed: Manu Katche / Touchstone For Manu [ECM 2419]
––––––––––––––––––––––––––––––––––––––––

DR Peak RMS Duration Track
––––––––––––––––––––––––––––––––––––––––
DR13 -0.13 dB -17.59 dB 6:31 01-Song For Her
DR13 -0.02 dB -15.38 dB 6:14 02-Number One
DR14 -0.06 dB -16.50 dB 4:02 03-Take Off And Land
DR13 -0.13 dB -15.99 dB 5:53 04-So Groovy
DR14 -0.13 dB -17.87 dB 5:30 05-Morning Joy
DR12 -0.12 dB -15.24 dB 5:33 06-Keep On Trippin'
DR13 -0.12 dB -17.03 dB 4:13 07-Senses
DR11 -0.12 dB -15.03 dB 4:50 08-Swing Piece
DR10 -0.33 dB -14.04 dB 6:17 09-Running After Years
DR12 -0.33 dB -15.44 dB 5:36 10-Slowing The Tides
DR14 -0.12 dB -16.12 dB 4:21 11-Bliss
––––––––––––––––––––––––––––––––––––––––

Number of tracks: 11
Official DR value: DR13

Samplerate: 44100 Hz
Channels: 2
Bits per sample: 16
Bitrate: 559 kbps
Codec: FLAC
================================================================================

Manu Katche - Touchstone For Manu (2014) {ECM 2419}
Manu Katche - Touchstone For Manu (2014) {ECM 2419}
Manu Katche - Touchstone For Manu (2014) {ECM 2419}


Thanks to the original ripper