Tags
Language
Tags

Marc Bolan & T.Rex - Live 1977 (1997)

Posted By: popsakov
Marc Bolan & T.Rex - Live 1977 (1997)

Marc Bolan & T.Rex - Live 1977 (1997)
2CD | EAC Rip | FLAC (Img) + Cue + Log ~ 665 Mb | MP3 CBR320 ~ 303 Mb
Full Scans | 01:05:55 + 00:36:25 | RAR 5% Recovery
Glam Rock | Chronicles #314 536 251-2

Disc One: From the concerts at The Rainbow Theatre, London on 18th March 1977, and at The Portsmouth Locarno on 20th March 1977. Disc Two: From the concert at The Agora Club, Cleveland, Ohio on 11th November 1974. A live Marc Bolan and T. Rex album was never released during Marc's lifetime. He claimed that he felt it unfair to expect fans to buy the same material more than once, and a multitude of contractual problems also kept his hands tied. This has often been due to the quality of the source tapes - a problem that has been largely unavoidable.

***************

Track List CD1:

01. Jeepster [4:05]
02. Visions of Domino [3:10]
03. New York City [4:10]
04. Soul of My Suit [3:30]
05. Groove a Little [4:18]
06. Telegram Sam [6:54]
07. Hang Ups [6:22]
08. Debora [3:38]
09. I Love to Boogie [4:29]
10. Teen Riot Structure [4:41]
11. Dandy in the Underworld [4:02]
12. Hot Love [3:32]
13. Get It On (Bang a Gong) with The Damned [13:09]

Exact Audio Copy V1.6 from 23. October 2020

EAC extraction logfile from 26. April 2022, 12:04

Marc Bolan & T. Rex / Live 1977

Used drive : ASUS SDRW-08D1S-U Adapter: 1 ID: 0

Read mode : Secure
Utilize accurate stream : Yes
Defeat audio cache : Yes
Make use of C2 pointers : No

Read offset correction : 667
Overread into Lead-In and Lead-Out : No
Fill up missing offset samples with silence : Yes
Delete leading and trailing silent blocks : No
Null samples used in CRC calculations : Yes
Used interface : Native Win32 interface for Win NT & 2000

Used output format : User Defined Encoder
Selected bitrate : 128 kBit/s
Quality : High
Add ID3 tag : No
Command line compressor : C:\Program Files (x86)\Exact Audio Copy\FLAC\FLAC.EXE
Additional command line options : -V -8 -T "Date=%year%" -T "Genre=%genre%" %source%


TOC of the extracted CD

Track | Start | Length | Start sector | End sector
––––––––––––––––––––––––––––-
1 | 0:00.00 | 4:04.12 | 0 | 18311
2 | 4:04.12 | 3:10.00 | 18312 | 32561
3 | 7:14.12 | 4:09.53 | 32562 | 51289
4 | 11:23.65 | 3:29.25 | 51290 | 66989
5 | 14:53.15 | 4:17.30 | 66990 | 86294
6 | 19:10.45 | 6:53.17 | 86295 | 117286
7 | 26:03.62 | 6:21.60 | 117287 | 145921
8 | 32:25.47 | 3:37.45 | 145922 | 162241
9 | 36:03.17 | 4:28.23 | 162242 | 182364
10 | 40:31.40 | 4:40.45 | 182365 | 203409
11 | 45:12.10 | 4:01.62 | 203410 | 221546
12 | 49:13.72 | 3:31.70 | 221547 | 237441
13 | 52:45.67 | 13:08.25 | 237442 | 296566


Range status and errors

Selected range

Filename C:\Users\1\OneDrive\Рабочий стол\Marc Bolan&T.Rex Live 1977\CD 1\Marc Bolan & T. Rex - Live 1977.wav

Peak level 100.0 %
Extraction speed 4.0 X
Range quality 100.0 %
Test CRC 849B2F6E
Copy CRC 849B2F6E
Copy OK

No errors occurred


AccurateRip summary

Track 1 accurately ripped (confidence 5) [E566AF77] (AR v2)
Track 2 accurately ripped (confidence 5) [E13AD072] (AR v2)
Track 3 accurately ripped (confidence 5) [D34033A1] (AR v2)
Track 4 accurately ripped (confidence 5) [9134C3E2] (AR v2)
Track 5 accurately ripped (confidence 5) [87FB41F1] (AR v2)
Track 6 accurately ripped (confidence 5) [C55D6BF3] (AR v2)
Track 7 accurately ripped (confidence 4) [864019AA] (AR v2)
Track 8 accurately ripped (confidence 4) [83815799] (AR v2)
Track 9 accurately ripped (confidence 5) [12B13580] (AR v2)
Track 10 accurately ripped (confidence 5) [17255370] (AR v2)
Track 11 accurately ripped (confidence 5) [ABCF06A4] (AR v2)
Track 12 accurately ripped (confidence 5) [62975B96] (AR v2)
Track 13 accurately ripped (confidence 5) [39FFB8B3] (AR v2)

All tracks accurately ripped

End of status report

–– CUETools DB Plugin V2.1.6

[CTDB TOCID: BUNJJbXurRSfXGzAlNW5qarB3Ro-] found
Submit result: BUNJJbXurRSfXGzAlNW5qarB3Ro- has been confirmed
Track | CTDB Status
1 | (9/9) Accurately ripped
2 | (9/9) Accurately ripped
3 | (9/9) Accurately ripped
4 | (9/9) Accurately ripped
5 | (9/9) Accurately ripped
6 | (9/9) Accurately ripped
7 | (9/9) Accurately ripped
8 | (9/9) Accurately ripped
9 | (9/9) Accurately ripped
10 | (9/9) Accurately ripped
11 | (9/9) Accurately ripped
12 | (9/9) Accurately ripped
13 | (9/9) Accurately ripped


==== Log checksum B616151BC8DB1CC950669118F1C2026919E2C270279E74E6ADDAC0C6DDFD3AC9 ====

Track List CD2:

01. Jeepster [8:18]
02. Telegram Sam [7:34]
03. Token of My Love [6:03]
04. Teenage Dream [5:16]
05. Zip Gun Boogie [9:16]

Exact Audio Copy V1.6 from 23. October 2020

EAC extraction logfile from 26. April 2022, 13:01

T. Rex / Live 1977

Used drive : ASUS SDRW-08D1S-U Adapter: 1 ID: 0

Read mode : Secure
Utilize accurate stream : Yes
Defeat audio cache : Yes
Make use of C2 pointers : No

Read offset correction : 667
Overread into Lead-In and Lead-Out : No
Fill up missing offset samples with silence : Yes
Delete leading and trailing silent blocks : No
Null samples used in CRC calculations : Yes
Used interface : Native Win32 interface for Win NT & 2000

Used output format : User Defined Encoder
Selected bitrate : 128 kBit/s
Quality : High
Add ID3 tag : No
Command line compressor : C:\Program Files (x86)\Exact Audio Copy\FLAC\FLAC.EXE
Additional command line options : -V -8 -T "Date=%year%" -T "Genre=%genre%" %source%


TOC of the extracted CD

Track | Start | Length | Start sector | End sector
––––––––––––––––––––––––––––-
1 | 0:00.00 | 8:17.47 | 0 | 37321
2 | 8:17.47 | 7:33.23 | 37322 | 71319
3 | 15:50.70 | 6:02.20 | 71320 | 98489
4 | 21:53.15 | 5:15.65 | 98490 | 122179
5 | 27:09.05 | 9:15.60 | 122180 | 163864


Range status and errors

Selected range

Filename C:\Users\1\OneDrive\Рабочий стол\Marc Bolan&T.Rex Live 1977\CD 2\T. Rex - Live 1977.wav

Peak level 100.0 %
Extraction speed 3.6 X
Range quality 100.0 %
Test CRC 4A8986C8
Copy CRC 4A8986C8
Copy OK

No errors occurred


AccurateRip summary

Track 1 accurately ripped (confidence 5) [D0E6C988] (AR v2)
Track 2 accurately ripped (confidence 5) [438DE00F] (AR v2)
Track 3 accurately ripped (confidence 5) [2B08DA82] (AR v2)
Track 4 accurately ripped (confidence 5) [ACA892D6] (AR v2)
Track 5 accurately ripped (confidence 5) [85454DB6] (AR v2)

All tracks accurately ripped

End of status report

–– CUETools DB Plugin V2.1.6

[CTDB TOCID: 6sgYWYSnJu0lMYwzzB3ikyNojjs-] found
Submit result: 6sgYWYSnJu0lMYwzzB3ikyNojjs- has been confirmed
Track | CTDB Status
1 | (19/19) Accurately ripped
2 | (18/19) Accurately ripped
3 | (19/19) Accurately ripped
4 | (19/19) Accurately ripped
5 | (19/19) Accurately ripped


==== Log checksum EF1FB31D27355C5927F1F0F01F6F6DE321046CFD1521BEE699B4DFE1CE1E5F54 ====

All thanks go to Alex Fal

>>> Marc Bolan & T.Rex in my Blog <<<

DOWNLOAD: