Subcategories

Marc Antoine - Madrid (1998) {GRP}

Posted By: tiburon
Marc Antoine - Madrid (1998) {GRP}

Marc Antoine - Madrid (1998) {GRP}
EAC 0.99pb4 | FLAC Image level 8 | Cue+Log | Scans 300dpi | 282MB + 5% Recovery
MP3 CBR 320 Kbps | 108MB + 5% Recovery
Genre: Smooth Jazz, Latin Jazz

Anyone who appreciates the richness of Spanish music (be it traditional flamenco or the popular "flamenco rock" of the 1970s, '80s and '90s) can't help but take notice when an album is titled Madrid. This effort by guitarist Marc Antoine was recorded with the so-called "smooth jazz" market in mind. Imagine the most laid-back recordings of Earl Klugh, Lee Ritenour, or Grant Geissman having Spanish overtones, and you can get an idea what Antoine sounds like on such lightweight tunes as "Jazzenco," "Plaza Mayor," and "Sunland." Antoine's albums may have wound up in the jazz bins, but this CD is would be more at home in "new age with a beat.
Track List
01. Sunland (4:37)
02. Madrid (4:42)
03. Dreamsicle (4:51)
04. Sarava (5:32)
05. Plaza Mayor (4:39)
06. Jazzenco (4:32)
07. Concache (4:36)
08. Amour Hispanic (4:28)
09. Cabrillo (5:51)
10. Rebecca's Waltz (2:33)

musicians
Marc Antoine - vocals, guitar, keyboards, drums, drum programming
Marietta Waters, Kevin Whalum - vocals
Bob Sheppard - flute
Peter White - accordion
Kirk Whalum - tenor saxophone
Rick Braun - trumpet, flugelhorn, keyboards, drum programming
James Raymond - piano, keyboards
Philippe Saisse - piano
Dave Kochanski, Rick Jackson - keyboards
Jimmy Earl, Jimmy Haslip - fretless bass
David Palmer - drums, cymbals
Dave Karasony - drums
Luis Conte - percussion
Michael Railton - drum programming


Exact Audio Copy V0.99 prebeta 4 from 23. January 2008

Отчёт EAC об извлечении, выполненном 21. ноября 2009, 16:22

Marc Antoine / Madrid

Дисковод: ASUS DRW-1814BLT Adapter: 2 ID: 0

Режим чтения : Достоверность
Использование точного потока : Да
Отключение кэша аудио : Да
Использование указателей C2 : Нет

Коррекция смещения при чтении : 6
Способность читать области Lead-in и Lead-out : Нет
Заполнение пропущенных сэмплов тишиной : Да
Удаление блоков с тишиной в начале и конце : Нет
При вычислениях CRC использовались нулевые сэмплы : Да
Интерфейс : Встроенный Win32-интерфейс для Win NT/2000

Выходной формат : Пользовательский кодировщик
Выбранный битрейт : 256 kBit/s
Качество : Высокий
Добавление ID3-тэга : Нет
Утилита сжатия : D:\Program Files\Exact Audio Copy\Flac\flac.exe
Дополнительные параметры : -8 –delete-input-file -o "D:\CDImage.flac" -V %s


TOC извлечённого CD

Трек | Старт | Длительность | Начальный сектор | Конечный сектор
––––––––––––––––––––––––––––––––––-
1 | 0:00.00 | 4:37.05 | 0 | 20779
2 | 4:37.05 | 4:41.67 | 20780 | 41921
3 | 9:18.72 | 4:52.13 | 41922 | 63834
4 | 14:11.10 | 5:31.45 | 63835 | 88704
5 | 19:42.55 | 4:39.32 | 88705 | 109661
6 | 24:22.12 | 4:32.18 | 109662 | 130079
7 | 28:54.30 | 4:36.37 | 130080 | 150816
8 | 33:30.67 | 4:28.38 | 150817 | 170954
9 | 37:59.30 | 5:50.60 | 170955 | 197264
10 | 43:50.15 | 2:33.30 | 197265 | 208769


Характеристики диапазона извлечения и сообщения об ошибках

Выбранный диапазон

Имя файла D:\Marc Antoine - Madrid.wav

Пиковый уровень 100.0 %
Качество диапазона 100.0 %
CRC теста 451B5906
CRC копии 451B5906
Копирование… OK

Ошибок не произошло


AccurateRip: сводка

Трек 1 точность не определена (достоверность 9) [C4770CA1], AccurateRip вернул [92F4C2CD]
Трек 2 точность не определена (достоверность 8) [A8FA5A47], AccurateRip вернул [EA521902]
Трек 3 точность не определена (достоверность 9) [717DE72F], AccurateRip вернул [4FE9944E]
Трек 4 точность не определена (достоверность 9) [EB81260A], AccurateRip вернул [B218B618]
Трек 5 точность не определена (достоверность 9) [5B3E71AC], AccurateRip вернул [E74A87B1]
Трек 6 точность не определена (достоверность 9) [7A3E8F2A], AccurateRip вернул [71EA6EE4]
Трек 7 точность не определена (достоверность 9) [7F75634F], AccurateRip вернул [EF7CDC52]
Трек 8 точность не определена (достоверность 9) [85BBFD7F], AccurateRip вернул [CE1BBB6E]
Трек 9 точность не определена (достоверность 9) [2F11F77C], AccurateRip вернул [2A7E48E7]
Трек 10 точность не определена (достоверность 8) [5436E5B1], AccurateRip вернул [ECFAFA46]

Ни один трек не прошёл проверки на точность
В вашей базе может быть иной вариант штамповки диска

Конец отчёта


foobar2000 1.3.13 / Dynamic Range Meter 1.1.1
log date: 2017-12-05 16:58:49

––––––––––––––––––––––––––––––––––––––––
Analyzed: Marc Antoine / Madrid
––––––––––––––––––––––––––––––––––––––––

DR Peak RMS Duration Track
––––––––––––––––––––––––––––––––––––––––
DR10 0.00 dB -11.14 dB 4:37 01-Sunland
DR10 0.00 dB -11.43 dB 4:42 02-Madrid
DR9 0.00 dB -10.23 dB 4:52 03-Dreamsicle
DR10 0.00 dB -11.16 dB 5:32 04-Sarava
DR11 0.00 dB -13.00 dB 4:39 05-Plaza Mayor
DR14 0.00 dB -15.28 dB 4:32 06-Jazzenco
DR10 0.00 dB -11.77 dB 4:36 07-Concache
DR12 0.00 dB -13.85 dB 4:29 08-Amour Hispanic
DR9 0.00 dB -11.17 dB 5:51 09-Cabrillo
DR13 0.00 dB -17.24 dB 2:33 10-Rebeca's Waltz
––––––––––––––––––––––––––––––––––––––––

Number of tracks: 10
Official DR value: DR11

Samplerate: 44100 Hz
Channels: 2
Bits per sample: 16
Bitrate: 844 kbps
Codec: FLAC
================================================================================

Marc Antoine - Madrid (1998) {GRP}
Marc Antoine - Madrid (1998) {GRP}


Thanks to the original ripper