Subcategories

Marco Simonacci - Scelsi: Music for Cello Solo (2017)

Posted By: SERTiL
Marco Simonacci - Scelsi: Music for Cello Solo (2017)

Marco Simonacci - Scelsi: Music for Cello Solo
Classical | WEB FLAC (tracks) & d. booklet | 58:34 min | 236 MB
Label: Brilliant Classics | Tracks: 09 | Rls.date: 2017

“You have to enter into sound, penetrate it in its triple essence: physical, psychic and creative”, words by Giacinto Scelsi, one of the most influential and enigmatic avant‐garde composers of 20‐th century Italy. Born into a wealthy family he went to Vienna for his education, studied with Arnold Schoenberg and returned to Italy where he organized concerts introducing contemporary composers like Prokofiev, Shostakovich, Hindemith and Stravinsky. Later he was influenced by eastern spiritualism which radically changed his conception of music, in which he had an important role for improvisation for both composer and performer.

The work for cello solo on this new recording illustrate Scelsi’s journey to the roots of sound. The Trilogia makes up the different stages of Man’s mortal experience: youth/energy/drama, maturity/thought and the final catharsis. This music invites the listener to go with the flow, without worrying about rational perception or explanation.

Played with deep conviction and dedication by Italian cellist Marco Simonacci, who already successfully recorded for Brilliant Classics works by John Cage and Morton Feldman.

Tracklist:
01. The 3 Stages of Man, I. Triphon: I. Giovinezza
02. The 3 Stages of Man, I. Triphon: II. Energia
03. The 3 Stages of Man, I. Triphon: III. Dramma
04. The 3 Stages of Man, II. Dithome: I. Maturità-Energia-Pensiero
05. The 3 Stages of Man, III. Ygghur: I. Vecchiaia
06. The 3 Stages of Man, III. Ygghur: II. Ricordi
07. The 3 Stages of Man, III. Ygghur: III. Catarsi, liberazione
08. Voyages: I. Il allaint seul
09. Voyages: II. Le fleuve magique

PERFORMER: auCDtect Task Manager, ver. 1.6.0 RC1 build 1.6.0.1
Copyright © 2008-2010 y-soft. All rights reserved

ANALYZER: auCDtect: CD records authenticity detector, version 0.8.2
Copyright © 2004 Oleg Berngardt. All rights reserved.
Copyright © 2004 Alexander Djourik. All rights reserved.


FILE: 09. Voyages II. Le fleuve magique.flac
Size: 11314971 Hash: 0DE35B508AA89A9B9DDC4C5B90D11F61 Accuracy: -m0
Conclusion: CDDA 100%
Signature: 180C96FB0D3B2FC447CFE63B07F2A927DFA5F3B9
FILE: 08. Voyages I. Il allaint seul.flac
Size: 22465946 Hash: 8B8D2EA7276F7B7A6E3905B5AC52FDC5 Accuracy: -m0
Conclusion: CDDA 100%
Signature: 9520B9D66E47A494D7860E3B6722B7DEC9A7D690
FILE: 07. The 3 Stages of Man, III. Ygghur III. Catarsi, liberazione.flac
Size: 17089584 Hash: D5F4921C0C044704FE37946A4F23FCAD Accuracy: -m0
Conclusion: CDDA 100%
Signature: BF9862B8B31D7AADA85AC45E9C28E2F9BF0CA8D6
FILE: 06. The 3 Stages of Man, III. Ygghur II. Ricordi.flac
Size: 14932603 Hash: B9FD02CED83F2D7ABF7BF26EEC7D879A Accuracy: -m0
Conclusion: CDDA 100%
Signature: D556770E156D41898D14C5D5E038C05121D9BEC3
FILE: 05. The 3 Stages of Man, III. Ygghur I. Vecchiaia.flac
Size: 29881482 Hash: B0A94D3C1B8D19CDA9DB454363A97045 Accuracy: -m0
Conclusion: CDDA 100%
Signature: 190DEB3DB676B68695CDDE8C27D0919F17318B71
FILE: 04. The 3 Stages of Man, II. Dithome I. Maturità-Energia-Pensiero.flac
Size: 68841509 Hash: D35952340234A35BDEB698F247804823 Accuracy: -m0
Conclusion: CDDA 100%
Signature: DE61AB4897D07798E57E0A5D9B6BBCF33BAACA30
FILE: 03. The 3 Stages of Man, I. Triphon III. Dramma.flac
Size: 29243266 Hash: 1B2B4F349C8A388ED391582E8B58E103 Accuracy: -m0
Conclusion: CDDA 99%
Signature: DBBC655ED6392CA8FEFD3FFFA364591E5CDD0EF8
FILE: 02. The 3 Stages of Man, I. Triphon II. Energia.flac
Size: 17203274 Hash: A5E3194603C76FA1630504EA11CA2021 Accuracy: -m0
Conclusion: CDDA 100%
Signature: EE524063578305FD51EDE786507E8DFD835C62ED
FILE: 01. The 3 Stages of Man, I. Triphon I. Giovinezza.flac
Size: 34473821 Hash: 7FCD4FAFB716BD7FEF297DEEF9F6444E Accuracy: -m0
Conclusion: CDDA 100%
Signature: 325B87D75B3351A8981355848776478EECF741AE

foobar2000 1.3.7 / Dynamic Range Meter 1.1.1
log date: 2017-11-03 20:20:02

––––––––––––––––––––––––––––––––––––––––
Analyzed: Marco Simonacci / Scelsi: Music for Cello Solo
––––––––––––––––––––––––––––––––––––––––

DR Peak RMS Duration Track
––––––––––––––––––––––––––––––––––––––––
DR13 -1.74 dB -18.62 dB 7:00 01-The 3 Stages of Man, I. Triphon: I. Giovinezza
DR16 -1.01 dB -21.44 dB 4:29 02-The 3 Stages of Man, I. Triphon: II. Energia
DR15 -1.62 dB -20.00 dB 5:51 03-The 3 Stages of Man, I. Triphon: III. Dramma
DR15 -0.99 dB -20.37 dB 16:27 04-The 3 Stages of Man, II. Dithome: I. Maturità-Energia-Pensiero
DR16 -1.86 dB -23.93 dB 7:39 05-The 3 Stages of Man, III. Ygghur: I. Vecchiaia
DR16 -8.27 dB -30.50 dB 3:34 06-The 3 Stages of Man, III. Ygghur: II. Ricordi
DR15 -8.83 dB -29.79 dB 4:35 07-The 3 Stages of Man, III. Ygghur: III. Catarsi, liberazione
DR12 -11.87 dB -28.38 dB 6:04 08-Voyages: I. Il allaint seul
DR16 -8.33 dB -30.13 dB 3:00 09-Voyages: II. Le fleuve magique
––––––––––––––––––––––––––––––––––––––––

Number of tracks: 9
Official DR value: DR15

Samplerate: 44100 Hz
Channels: 2
Bits per sample: 16
Bitrate: 489 kbps
Codec: FLAC
================================================================================


Marco Simonacci - Scelsi: Music for Cello Solo (2017)


Thanks to the Original customer.