Subcategories

Marcos Valle - Tudo: A Discografia Completa de 1963 a 1974 (2011) 11CD Box Set [Re-Up]

Posted By: Designol
Marcos Valle - Tudo: A Discografia Completa de 1963 a 1974 (2011) 11CD Box Set [Re-Up]

Marcos Valle - Tudo: A Discografia Completa de 1963 a 1974 (2011) 11CD
EAC | FLAC | Tracks (Cue&Log) ~ 3.29 Gb (incl 5%) | Mp3 (CBR320) ~ 1.61 Mb (incl 5%) | Scans included
MPB, Bossa Nova, Brazilian Jazz, Samba, Brazilian Pop | Label: EMI Music Brasil | Time: 07:09:26

If you are into the music of Marcos Valle then you are in for a fantastic treat! Valle Tudo – Discografica De 1963 A 1974 features some of the most amazing music ever recorded. Every record in this massive package is a delight – from the early bossa sides, to the more complicated singer/songwriter material, to Valle's incredibly rich experiments with baroque pop! Valle is certainly one of the greatest Brazilian artists to ever enter a recording studio. Not only does the set include 10 rare albums, but each CD comes with bonus tracks – plus the whole thing also features a previously unreleased full album from 1966. Albums include Samba Demais, O Compositor E O Cantor, Braziliance, Viola Enluarada, Mustang Cor De Sangue, Marcos Valle (1970), Garra, Vento Sul, Previsao Do Tempo, and Marcos Valle (1974) – plus The Lost Sessions from 1966.

Marcos Valle - Tudo: A Discografia Completa de 1963 a 1974 (2011) 11CD Box Set [Re-Up]


Marcos Valle was the Renaissance man of Brazilian pop, a singer/songwriter/producer who straddled the country's music world from the early days of the bossa nova craze well into the fusion-soaked sound of '80s MPB. Though his reputation in America never quite compared to contemporaries like Caetano Veloso, Milton Nascimento, Gilberto Gil, or even Tom Zé, Valle is one of the most important and popular performers in the history of Brazilian pop.

Born in Rio de Janeiro in 1943, Valle studied classical music as a child but listened to many different types of music, especially jazz. He began writing songs with his brother Paulo Sérgio – Marcos was the tune writer, Paulo the lyricist – in the early '60s, and after Tamba Trio found a hit with his "Sonho de Maria," Valle was named Brazil's Leading Composer of the Year at the age of 19. A recording contract soon followed, and in 1964 he released his first album, Samba Demais, for EMI Brazil. A tour with Sergio Mendes & Brasil '65 the following year brought his first show business connections in America (via Merv Griffin), and in 1966 Walter Wanderley took Valle's song "So Nice (Summer Samba)" into the U.S. Top 40. Valle soon earned his own American contract, and in 1967, Warner Bros. released the instrumentals album Braziliance! One year later, his Verve debut, Samba '68, became a Brazilian classic thanks to simple, infectious pop songs like "Batucada," "Chup, Chup, I Got Away," and "Crickets Sing for Anamaria" (all of which featured spot-on harmony vocals by his wife, Anamaria).

Despite the incredible promise revealed by Samba '68, it was his last American album to date. That same year, the Brazilian-only Viola Enluarada became a big hit in South America, thanks in part to the title track (with vocals by a young Milton Nascimento). The rock & roll era that had already influenced tropicalistas like Os Mutantes, Caetano Veloso, and Gilberto Gil soon began inspiring Valle as well. With albums like the irresistible 1971 classic Garra, he moved away from native Brazilian forms like the bossa nova and samba and into a rock-influenced sound that played up groove-heavy bass and smooth funk even while courting his amazing melodic sense. He continued recording for EMI until he moved to America in 1975. There, he wrote and arranged tracks for Eumir Deodato, Airto Moreira, and Chicago. He continued to record solo albums during the early '80s, adding electronics and smooth production techniques to the mix with surprisingly solid results, but also moved into writing music (often with Paulo) for films and novellas, including the theme to Brazil's version of Sesame Street.

During the late '80s, the rare-groove craze centered in London resurrected and relentlessly compiled dozens of crucial overlooked tracks from the '60s and '70s, including Valle's "Crickets Sing for Anamaria." In 1995, the British label Mr. Bongo released a two-volume series (The Essential Marcos Valle) dedicated to his work. One year later, Valle appeared on the jam session compilation Friends from Rio, and in 1998 returned with a new album, Nova Bossa Nova. That same year, the Lumiar label released The Marcos Valle Songbook, Vol. 1 and Vol. 2, including new versions of Valle standards by Gal Costa, Caetano Veloso, Maria Bethania, Edu Lobo, Joyce, Chico Buarque, Joao Bosco, and Azymuth, among others. The new millennium heralded another studio album, Escape, as well as prescient Japanese reissues from his late-'60s/early-'70s peak. Additional albums followed during the 2000s, including Contrasts (2003) and Jet Samba (2005), as well as the live Conecta ao Vivo No Cinematheque (2008). He entered the new decade with another new studio album, 2010's Estática.

Biography by John Bush, Allmusic.com

Wiki



Marcos Valle - Tudo: A Discografia Completa de 1963 a 1974 (2011) 11CD Box Set [Re-Up]

Disc 1: Samba Demais (1963)
EAC | FLAC | Tracks (Cue&Log) ~ 304 Mb (incl 5%) | Mp3 (CBR320) ~ 144 Mb (incl 5%) | Scans included
Label: EMI Music Brasil | # 026460 2 | Time: 00:36:49

Marcos Valle's first album, Samba Demais, introduced one of Brazil's most refreshing talents of the 1960s and '70s, a subtle interpretive singer and an excellent songwriter (with brother Paulo Sérgio). Still, label and performer hedged their bets by having Valle mix his originals with a few perennials, including Jobim's "Vivo Sonhando" and "Ela é Carioca," plus the ballad "Moça Flor" and the Roberto Menescal set-closer "A Morte de um Deus de Sal." Boasting some easy, breezy help from Tamba Trio and a spring-like atmosphere throughout, Valle makes his debut an umitigated triumph, pausing over and treasuring his words on the Jobim songs and the originals "Amor de Nada" and "Sonho de Maria." If Valle's performance skills were already at an astonishingly high level, though, his compositional skills weren't quite as good as they'd be in 1965.

Review by John Bush, Allmusic.com

Tracklist:

01. Vivo Sonhando (3:21)
02. Amor De Nada (1:37)
03. Moca Flor (3:04)
04. Cancao Pequenina (1:54)
05. Razao Do Amor (3:26)
06. Tudo De Voce (2:45)
07. Sonho De Maria (3:34)
08. Ela E Carioca (2:32)
09. Ilusao A Toa (3:15)
10. Ainda Mais Linda (1:50)
11. E Vem O Sol (2:29)
12. A Morte De Um Deus De Sal (3:02)

bonus tracks

13. Amor De Nada (2:00)
14. Ainda Mais Lindo (1:54)


Exact Audio Copy V0.99 prebeta 5 from 4. May 2009

EAC extraction logfile from 28. July 2011, 23:32

Marcos Valle / Samba Demais

Used drive : PLEXTOR DVDR PX-880SA Adapter: 3 ID: 1

Read mode : Secure
Utilize accurate stream : Yes
Defeat audio cache : Yes
Make use of C2 pointers : No

Read offset correction : 6
Overread into Lead-In and Lead-Out : No
Fill up missing offset samples with silence : Yes
Delete leading and trailing silent blocks : No
Null samples used in CRC calculations : Yes
Used interface : Native Win32 interface for Win NT & 2000
Gap handling : Appended to previous track

Used output format : User Defined Encoder
Selected bitrate : 768 kBit/s
Quality : High
Add ID3 tag : No
Command line compressor : C:\Program Files (x86)\Exact Audio Copy\FLAC\FLAC.EXE
Additional command line options : -8 -V -T "ARTIST=%a" -T "TITLE=%t" -T "ALBUM=%g" -T "DATE=%y" -T "TRACKNUMBER=%n" -T "TOTALTRACKS=%x" -T "GENRE=%m" -T "ALBUM ARTIST=%v" -T "ALBUMARTIST=%v" -T "COMMENT=EAC V0.99 prebeta 5, Secure Mode, Test & Copy, Accurat


TOC of the extracted CD

Track | Start | Length | Start sector | End sector
––––––––––––––––––––––––––––-
1 | 0:00.00 | 3:21.49 | 0 | 15123
2 | 3:21.49 | 1:37.01 | 15124 | 22399
3 | 4:58.50 | 3:04.20 | 22400 | 36219
4 | 8:02.70 | 1:54.13 | 36220 | 44782
5 | 9:57.08 | 3:25.74 | 44783 | 60231
6 | 13:23.07 | 2:45.07 | 60232 | 72613
7 | 16:08.14 | 3:34.39 | 72614 | 88702
8 | 19:42.53 | 2:32.14 | 88703 | 100116
9 | 22:14.67 | 3:15.38 | 100117 | 114779
10 | 25:30.30 | 1:50.55 | 114780 | 123084
11 | 27:21.10 | 2:29.52 | 123085 | 134311
12 | 29:50.62 | 3:02.60 | 134312 | 148021
13 | 32:53.47 | 2:00.39 | 148022 | 157060
14 | 34:54.11 | 1:54.69 | 157061 | 165679


Track 1

Filename N:\01 - Vivo sonhando.wav

Pre-gap length 0:00:02.00

Peak level 98.1 %
Track quality 100.0 %
Test CRC ECCB8E93
Copy CRC ECCB8E93
Track not present in AccurateRip database
Copy OK

Track 2

Filename N:\02 - Amor de nada.wav

Pre-gap length 0:00:21.80

Peak level 98.1 %
Track quality 100.0 %
Test CRC 21420EA3
Copy CRC 21420EA3
Track not present in AccurateRip database
Copy OK

Track 3

Filename N:\03 - Moca flor.wav

Pre-gap length 0:00:02.08

Peak level 97.9 %
Track quality 99.9 %
Test CRC 118D1822
Copy CRC 118D1822
Track not present in AccurateRip database
Copy OK

Track 4

Filename N:\04 - Cancao pequenina.wav

Pre-gap length 0:00:02.13

Peak level 98.1 %
Track quality 100.0 %
Test CRC 428F57D7
Copy CRC 428F57D7
Track not present in AccurateRip database
Copy OK

Track 5

Filename N:\05 - Razao do amor.wav

Pre-gap length 0:00:01.97

Peak level 98.0 %
Track quality 100.0 %
Test CRC A0E2A4ED
Copy CRC A0E2A4ED
Track not present in AccurateRip database
Copy OK

Track 6

Filename N:\06 - Tudo de voce.wav

Pre-gap length 0:00:02.05

Peak level 97.8 %
Track quality 100.0 %
Test CRC 9A3792CA
Copy CRC 9A3792CA
Track not present in AccurateRip database
Copy OK

Track 7

Filename N:\07 - Sonho de Maria.wav

Pre-gap length 0:00:02.09

Peak level 98.1 %
Track quality 99.9 %
Test CRC A7C62E8B
Copy CRC A7C62E8B
Track not present in AccurateRip database
Copy OK

Track 8

Filename N:\08 - Ela e carioca.wav

Pre-gap length 0:00:02.10

Peak level 98.1 %
Track quality 100.0 %
Test CRC C0222BA0
Copy CRC C0222BA0
Track not present in AccurateRip database
Copy OK

Track 9

Filename N:\09 - Ilusao a toa.wav

Pre-gap length 0:00:02.10

Peak level 98.0 %
Track quality 100.0 %
Test CRC B1933703
Copy CRC B1933703
Track not present in AccurateRip database
Copy OK

Track 10

Filename N:\10 - Ainda mais linda.wav

Pre-gap length 0:00:02.10

Peak level 98.1 %
Track quality 100.0 %
Test CRC 660BE03A
Copy CRC 660BE03A
Track not present in AccurateRip database
Copy OK

Track 11

Filename N:\11 - E vem o sol.wav

Pre-gap length 0:00:02.04

Peak level 97.9 %
Track quality 100.0 %
Test CRC 604A94B3
Copy CRC 604A94B3
Track not present in AccurateRip database
Copy OK

Track 12

Filename N:\12 - A morte de um deus de sal.wav

Pre-gap length 0:00:02.14

Peak level 98.1 %
Track quality 100.0 %
Test CRC 8C6EAAE7
Copy CRC 8C6EAAE7
Track not present in AccurateRip database
Copy OK

Track 13

Filename N:\13 - Amor de nada.wav

Pre-gap length 0:00:04.58

Peak level 98.0 %
Track quality 99.9 %
Test CRC B2378232
Copy CRC B2378232
Track not present in AccurateRip database
Copy OK

Track 14

Filename N:\14 - Ainda mais lindo.wav

Pre-gap length 0:00:03.57

Peak level 98.0 %
Track quality 99.9 %
Test CRC CDE1530B
Copy CRC CDE1530B
Track not present in AccurateRip database
Copy OK


None of the tracks are present in the AccurateRip database

No errors occurred

End of status report




Marcos Valle - Tudo: A Discografia Completa de 1963 a 1974 (2011) 11CD Box Set [Re-Up]

Disc 2: O Compositor e o Cantor (1965)
EAC | FLAC | Tracks (Cue&Log) ~ 325 Mb (incl 5%) | Mp3 (CBR320) ~ 151 Mb (incl 5%) | Scans included
Label: EMI Music Brasil | # 026461 2 | Time: 00:43:26

O Compositor e o Cantor, one of Marcos Valle's earliest albums, presents the composer and singer working through a collection of songs (many written with his brother, Paulo Sérgio) that would later become Brazilian standards and Valle favorites on his later LPs. But since one of the most important elements of Valle's later artistic successes was his mastery of production and arrangement, these rather spare recordings never quite reach the peaks of his late-'60s and early-'70s material. However, the seeds of his production style are clearly visible on several tracks, including the highlight, "Preciso Aprender a Ser Só." He strains a bit with the vocal parts on "Gente" and "Seu Encanto," but for the most part these are incredibly well-conceptualized songs for 1965. Fans of Astrud Gilberto will recognize the early versions of songs she later recorded with added English lyrics, including "Seu Encanto" ("The Face I Love") and "Samba de Verâo" ("So Nice").

Review by John Bush, Allmusic.com

Tracklist:

01. Gente (2:22)
02. Preciso Aprender A Ser So (3:37)
03. Seu Encanto (2:28)
04. Passa Por Mim (3:59)
05. Samba De Verao (2:33)
06. A Resposta (3:15)
07. Deus Brasileiro (2:23)
08. Dorme Profundo (3:24)
09. Vem (2:07)
10. Mais Amor (3:27)
11. Perdao (3:18)
12. Nao Pode Ser (2:35)

bonus tracks

13. Vamos Pranchar (2:32)
14. Deus Brasileiro (Versao Instrumental) (2:41)
15. Nao Pode Ser (Versao Instrumental) (2:39)


Exact Audio Copy V0.99 prebeta 5 from 4. May 2009

EAC extraction logfile from 29. July 2011, 12:35

Marcos Valle / O compositor e o cantor

Used drive : PLEXTOR DVDR PX-880SA Adapter: 3 ID: 1

Read mode : Secure
Utilize accurate stream : Yes
Defeat audio cache : Yes
Make use of C2 pointers : No

Read offset correction : 6
Overread into Lead-In and Lead-Out : No
Fill up missing offset samples with silence : Yes
Delete leading and trailing silent blocks : No
Null samples used in CRC calculations : Yes
Used interface : Native Win32 interface for Win NT & 2000
Gap handling : Appended to previous track

Used output format : User Defined Encoder
Selected bitrate : 768 kBit/s
Quality : High
Add ID3 tag : No
Command line compressor : C:\Program Files (x86)\Exact Audio Copy\FLAC\FLAC.EXE
Additional command line options : -8 -V -T "ARTIST=%a" -T "TITLE=%t" -T "ALBUM=%g" -T "DATE=%y" -T "TRACKNUMBER=%n" -T "TOTALTRACKS=%x" -T "GENRE=%m" -T "ALBUM ARTIST=%v" -T "ALBUMARTIST=%v" -T "COMMENT=EAC V0.99 prebeta 5, Secure Mode, Test & Copy, Accurat


TOC of the extracted CD

Track | Start | Length | Start sector | End sector
––––––––––––––––––––––––––––-
1 | 0:00.00 | 2:22.51 | 0 | 10700
2 | 2:22.51 | 3:37.03 | 10701 | 26978
3 | 5:59.54 | 2:28.28 | 26979 | 38106
4 | 8:28.07 | 3:59.12 | 38107 | 56043
5 | 12:27.19 | 2:33.58 | 56044 | 67576
6 | 15:01.02 | 3:15.33 | 67577 | 82234
7 | 18:16.35 | 2:23.65 | 82235 | 93024
8 | 20:40.25 | 3:24.68 | 93025 | 108392
9 | 24:05.18 | 2:06.71 | 108393 | 117913
10 | 26:12.14 | 3:27.32 | 117914 | 133470
11 | 29:39.46 | 3:18.66 | 133471 | 148386
12 | 32:58.37 | 2:35.10 | 148387 | 160021
13 | 35:33.47 | 2:32.57 | 160022 | 171478
14 | 38:06.29 | 2:41.38 | 171479 | 183591
15 | 40:47.67 | 2:39.02 | 183592 | 195518


Track 1

Filename N:\01 - Gente.wav

Pre-gap length 0:00:02.00

Peak level 98.1 %
Track quality 100.0 %
Test CRC 010E11EA
Copy CRC 010E11EA
Track not present in AccurateRip database
Copy OK

Track 2

Filename N:\02 - Preciso aprender a ser so.wav

Pre-gap length 0:00:03.49

Peak level 98.0 %
Track quality 100.0 %
Test CRC 18B5E53F
Copy CRC 18B5E53F
Track not present in AccurateRip database
Copy OK

Track 3

Filename N:\03 - Seu encanto.wav

Pre-gap length 0:00:03.26

Peak level 98.1 %
Track quality 100.0 %
Test CRC 07EE1133
Copy CRC 07EE1133
Track not present in AccurateRip database
Copy OK

Track 4

Filename N:\04 - Passa por mim.wav

Pre-gap length 0:00:03.48

Peak level 98.0 %
Track quality 100.0 %
Test CRC ED0CAB68
Copy CRC ED0CAB68
Track not present in AccurateRip database
Copy OK

Track 5

Filename N:\05 - Samba de verao.wav

Pre-gap length 0:00:03.13

Peak level 98.1 %
Track quality 99.9 %
Test CRC 9A3B0BCD
Copy CRC 9A3B0BCD
Track not present in AccurateRip database
Copy OK

Track 6

Filename N:\06 - A resposta.wav

Pre-gap length 0:00:03.82

Peak level 98.0 %
Track quality 100.0 %
Test CRC A521E7BE
Copy CRC A521E7BE
Track not present in AccurateRip database
Copy OK

Track 7

Filename N:\07 - Deus brasileiro.wav

Pre-gap length 0:00:03.58

Peak level 98.0 %
Track quality 100.0 %
Test CRC A477B902
Copy CRC A477B902
Track not present in AccurateRip database
Copy OK

Track 8

Filename N:\08 - Dorme profundo.wav

Pre-gap length 0:00:03.30

Peak level 98.0 %
Track quality 100.0 %
Test CRC 77C4BD44
Copy CRC 77C4BD44
Track not present in AccurateRip database
Copy OK

Track 9

Filename N:\09 - Vem.wav

Pre-gap length 0:00:02.86

Peak level 98.0 %
Track quality 100.0 %
Test CRC 9D47D00E
Copy CRC 9D47D00E
Track not present in AccurateRip database
Copy OK

Track 10

Filename N:\10 - Mais amor.wav

Pre-gap length 0:00:03.33

Peak level 95.6 %
Track quality 100.0 %
Test CRC B2E9B599
Copy CRC B2E9B599
Track not present in AccurateRip database
Copy OK

Track 11

Filename N:\11 - Perdao.wav

Pre-gap length 0:00:03.33

Peak level 97.6 %
Track quality 99.9 %
Test CRC 38A3E49D
Copy CRC 38A3E49D
Track not present in AccurateRip database
Copy OK

Track 12

Filename N:\12 - Nao pode ser.wav

Pre-gap length 0:00:03.40

Peak level 98.1 %
Track quality 100.0 %
Test CRC 7780D11D
Copy CRC 7780D11D
Track not present in AccurateRip database
Copy OK

Track 13

Filename N:\13 - Vamos pranchar.wav

Pre-gap length 0:00:05.57

Peak level 98.1 %
Track quality 99.9 %
Test CRC 4D72E695
Copy CRC 4D72E695
Track not present in AccurateRip database
Copy OK

Track 14

Filename N:\14 - Deus brasileiro (versao instrumental).wav

Pre-gap length 0:00:03.58

Peak level 98.1 %
Track quality 100.0 %
Test CRC 14384A32
Copy CRC 14384A32
Track not present in AccurateRip database
Copy OK

Track 15

Filename N:\15 - Nao pode ser (versao instrumental).wav

Pre-gap length 0:00:03.58

Peak level 98.1 %
Track quality 100.0 %
Test CRC C75F0AE7
Copy CRC C75F0AE7
Track not present in AccurateRip database
Copy OK


None of the tracks are present in the AccurateRip database

No errors occurred

End of status report




Marcos Valle - Tudo: A Discografia Completa de 1963 a 1974 (2011) 11CD Box Set [Re-Up]

Disc 3: Braziliance! (1967)
EAC | FLAC | Tracks (Cue&Log) ~ 221 Mb (incl 5%) | Mp3 (CBR320) ~ 107 Mb (incl 5%) | Scans included
Label: EMI Music Brasil | # 026462 2 | Time: 00:29:10

This is one of Valle's better-known albums north of the Orinoco – classic easy-listening instrumental music, from the tail-end of the bossa era. This is an all-instrumental set (with a few ooh-aah choruses and scat vocals an a couple of tracks. Some of it has more sonic and textural depth than your standard-issue muzak album, although much of it seems fairly formulaic, as well. You have to be into this kind of stuff to get excited by this disc. I liked the opening track, "O Grillo," but wasn't too hyperventilate-y about the rest of it. Features arrangements by Eumir Deodato.

Slipcue.com, Guide to Brazilian Music

Tracklist:

01. Os Grilos (2:21)
02. Preciso Aprender A Ser So (2:43)
03. Batucada Surgiu (2:19)
04. Seu Encanto (2:15)
05. Samba De Verao (1:59)
06. Vamos Pranchar (2:24)
07. Tanto Andei (1:43)
08. Dorme Profundo (2:54)
09. Deus Brasileiro (2:21)
10. Patricinha (2:24)
11. Passa Por Mim (2:44)
12. Se Voce Soubesse (2:58)


Exact Audio Copy V0.99 prebeta 5 from 4. May 2009

EAC extraction logfile from 1. August 2011, 23:20

Marcos Valle / Braziliance!

Used drive : PLEXTOR DVDR PX-880SA Adapter: 3 ID: 1

Read mode : Secure
Utilize accurate stream : Yes
Defeat audio cache : Yes
Make use of C2 pointers : No

Read offset correction : 6
Overread into Lead-In and Lead-Out : No
Fill up missing offset samples with silence : Yes
Delete leading and trailing silent blocks : No
Null samples used in CRC calculations : Yes
Used interface : Native Win32 interface for Win NT & 2000
Gap handling : Appended to previous track

Used output format : User Defined Encoder
Selected bitrate : 768 kBit/s
Quality : High
Add ID3 tag : No
Command line compressor : C:\Program Files (x86)\Exact Audio Copy\FLAC\FLAC.EXE
Additional command line options : -8 -V -T "ARTIST=%a" -T "TITLE=%t" -T "ALBUM=%g" -T "DATE=%y" -T "TRACKNUMBER=%n" -T "TOTALTRACKS=%x" -T "GENRE=%m" -T "ALBUM ARTIST=%v" -T "ALBUMARTIST=%v" -T "COMMENT=EAC V0.99 prebeta 5, Secure Mode, Test & Copy, Accurat


TOC of the extracted CD

Track | Start | Length | Start sector | End sector
––––––––––––––––––––––––––––-
1 | 0:00.00 | 2:21.17 | 0 | 10591
2 | 2:21.17 | 2:43.22 | 10592 | 22838
3 | 5:04.39 | 2:19.42 | 22839 | 33305
4 | 7:24.06 | 2:15.59 | 33306 | 43489
5 | 9:39.65 | 1:59.66 | 43490 | 52480
6 | 11:39.56 | 2:24.44 | 52481 | 63324
7 | 14:04.25 | 1:43.53 | 63325 | 71102
8 | 15:48.03 | 2:54.02 | 71103 | 84154
9 | 18:42.05 | 2:21.27 | 84155 | 94756
10 | 21:03.32 | 2:24.11 | 94757 | 105567
11 | 23:27.43 | 2:44.33 | 105568 | 117900
12 | 26:12.01 | 2:58.10 | 117901 | 131260


Track 1

Filename N:\01 - Os grilos.wav

Pre-gap length 0:00:02.00

Peak level 98.1 %
Track quality 100.0 %
Test CRC 1D842EFD
Copy CRC 1D842EFD
Track not present in AccurateRip database
Copy OK

Track 2

Filename N:\02 - Preciso aprender a ser so.wav

Pre-gap length 0:00:02.72

Peak level 97.3 %
Track quality 100.0 %
Test CRC F2B259B3
Copy CRC F2B259B3
Track not present in AccurateRip database
Copy OK

Track 3

Filename N:\03 - Batucada surgiu.wav

Pre-gap length 0:00:02.81

Peak level 98.1 %
Track quality 100.0 %
Test CRC BB0730F0
Copy CRC BB0730F0
Track not present in AccurateRip database
Copy OK

Track 4

Filename N:\04 - Seu encanto.wav

Pre-gap length 0:00:02.46

Peak level 98.0 %
Track quality 99.9 %
Test CRC BFF1EBF7
Copy CRC BFF1EBF7
Track not present in AccurateRip database
Copy OK

Track 5

Filename N:\05 - Samba de verao.wav

Pre-gap length 0:00:03.01

Peak level 98.1 %
Track quality 99.9 %
Test CRC 0226CCFF
Copy CRC 0226CCFF
Track not present in AccurateRip database
Copy OK

Track 6

Filename N:\06 - Vamos pranchar.wav

Pre-gap length 0:00:02.65

Peak level 98.1 %
Track quality 100.0 %
Test CRC 2BDD8DA6
Copy CRC 2BDD8DA6
Track not present in AccurateRip database
Copy OK

Track 7

Filename N:\07 - Tanto andei.wav

Pre-gap length 0:00:02.57

Peak level 98.1 %
Track quality 100.0 %
Test CRC 710F06EF
Copy CRC 710F06EF
Track not present in AccurateRip database
Copy OK

Track 8

Filename N:\08 - Dorme profundo.wav

Pre-gap length 0:00:01.09

Peak level 96.9 %
Track quality 99.9 %
Test CRC 22031BF4
Copy CRC 22031BF4
Track not present in AccurateRip database
Copy OK

Track 9

Filename N:\09 - Deus brasileiro.wav

Pre-gap length 0:00:02.68

Peak level 98.1 %
Track quality 100.0 %
Test CRC 0B04C815
Copy CRC 0B04C815
Track not present in AccurateRip database
Copy OK

Track 10

Filename N:\10 - Patricinha.wav

Pre-gap length 0:00:02.52

Peak level 98.0 %
Track quality 100.0 %
Test CRC 7672BD75
Copy CRC 7672BD75
Track not present in AccurateRip database
Copy OK

Track 11

Filename N:\11 - Passa por mim.wav

Pre-gap length 0:00:02.76

Peak level 98.0 %
Track quality 100.0 %
Test CRC C55DBDA3
Copy CRC C55DBDA3
Track not present in AccurateRip database
Copy OK

Track 12

Filename N:\12 - Se voce soubesse.wav

Pre-gap length 0:00:02.73

Peak level 98.1 %
Track quality 100.0 %
Test CRC 9D374B58
Copy CRC 9D374B58
Track not present in AccurateRip database
Copy OK


None of the tracks are present in the AccurateRip database

No errors occurred

End of status report




Marcos Valle - Tudo: A Discografia Completa de 1963 a 1974 (2011) 11CD Box Set [Re-Up]

Disc 4: Viola Enluarada (1968)
EAC | FLAC | Tracks (Cue&Log) ~ 360 Mb (incl 5%) | Mp3 (CBR320) ~ 182 Mb (incl 5%) | Scans included
Label: EMI Music Brasil | # 026463 2 | Time: 00:46:58

A beautiful, mellow album, with arrangements by Dori Caymmi, Eumir Deodato and Oscar Castro Neves, and guest vocals by a young Milton Nascimento on couple of tracks. The jovem guarda group, Golden Boys, provide understated backing on one track; otherwise this is pretty much all about Valle and his lyricist brother, Paulo Sergio Valle. Overall, a very lovely little album, and an interesting followup to their more perky outing recorded up in the U.S. that same year. Recommended!

Slipcue.com, Guide to Brazilian Music

Tracklist:

01. Viola Enluarada (3:18)
02. Proton, Eletron, Neutron (Com Ana Maria Valle) (2:46)
03. Maria Da Favela (3:44)
04. Bloco Do Eu Sozinho (3:01)
05. Homem Do Meu Mundo (2:47)
06. Viagem (2:49)
07. Terra De Ninguem (Com Golden Boys) (2:34)
08. Tiao Braco Forte (2:34)
09. O Amor E Chama (3:39)
10. Requiem (3:10)
11. Pelas Ruas Do Recife (2:14)
12. Eu (3:10)

bonus tracks

13. Terra De Ninguem (Instrumental) (2:29)
14. Tiao Braco Forte (Instrumental) (2:54)
15. O Amor E Chama (Instrumental) (3:22)
16. Ultimatum (2:21)


Exact Audio Copy V0.99 prebeta 5 from 4. May 2009

EAC extraction logfile from 1. August 2011, 20:01

Marcos Valle / Viola enluarada

Used drive : PLEXTOR DVDR PX-880SA Adapter: 3 ID: 1

Read mode : Secure
Utilize accurate stream : Yes
Defeat audio cache : Yes
Make use of C2 pointers : No

Read offset correction : 6
Overread into Lead-In and Lead-Out : No
Fill up missing offset samples with silence : Yes
Delete leading and trailing silent blocks : No
Null samples used in CRC calculations : Yes
Used interface : Native Win32 interface for Win NT & 2000
Gap handling : Appended to previous track

Used output format : User Defined Encoder
Selected bitrate : 768 kBit/s
Quality : High
Add ID3 tag : No
Command line compressor : C:\Program Files (x86)\Exact Audio Copy\FLAC\FLAC.EXE
Additional command line options : -8 -V -T "ARTIST=%a" -T "TITLE=%t" -T "ALBUM=%g" -T "DATE=%y" -T "TRACKNUMBER=%n" -T "TOTALTRACKS=%x" -T "GENRE=%m" -T "ALBUM ARTIST=%v" -T "ALBUMARTIST=%v" -T "COMMENT=EAC V0.99 prebeta 5, Secure Mode, Test & Copy, Accurat


TOC of the extracted CD

Track | Start | Length | Start sector | End sector
––––––––––––––––––––––––––––-
1 | 0:00.00 | 3:18.14 | 0 | 14863
2 | 3:18.14 | 2:46.10 | 14864 | 27323
3 | 6:04.24 | 3:44.15 | 27324 | 44138
4 | 9:48.39 | 3:01.65 | 44139 | 57778
5 | 12:50.29 | 2:47.06 | 57779 | 70309
6 | 15:37.35 | 2:49.19 | 70310 | 83003
7 | 18:26.54 | 2:34.52 | 83004 | 94605
8 | 21:01.31 | 2:34.23 | 94606 | 106178
9 | 23:35.54 | 3:39.27 | 106179 | 122630
10 | 27:15.06 | 3:10.39 | 122631 | 136919
11 | 30:25.45 | 2:14.55 | 136920 | 147024
12 | 32:40.25 | 3:10.16 | 147025 | 161290
13 | 35:50.41 | 2:29.08 | 161291 | 172473
14 | 38:19.49 | 2:54.67 | 172474 | 185590
15 | 41:14.41 | 3:22.68 | 185591 | 200808
16 | 44:37.34 | 2:20.70 | 200809 | 211378


Track 1

Filename N:\01 - Viola enluarada.wav

Pre-gap length 0:00:02.00

Peak level 98.1 %
Track quality 100.0 %
Test CRC 54ED5F86
Copy CRC 54ED5F86
Track not present in AccurateRip database
Copy OK

Track 2

Filename N:\02 - Proton, eletron, neutron.wav

Pre-gap length 0:00:03.06

Peak level 98.1 %
Track quality 100.0 %
Test CRC F75CED64
Copy CRC F75CED64
Track not present in AccurateRip database
Copy OK

Track 3

Filename N:\03 - Maria da Favela.wav

Pre-gap length 0:00:03.32

Peak level 98.1 %
Track quality 100.0 %
Test CRC F90CE20A
Copy CRC F90CE20A
Track not present in AccurateRip database
Copy OK

Track 4

Filename N:\04 - Bloco do eu sozinho.wav

Pre-gap length 0:00:03.24

Peak level 98.0 %
Track quality 100.0 %
Test CRC D14BC14B
Copy CRC D14BC14B
Track not present in AccurateRip database
Copy OK

Track 5

Filename N:\05 - Homem do meu mundo.wav

Pre-gap length 0:00:03.33

Peak level 98.0 %
Track quality 100.0 %
Test CRC 052D84C3
Copy CRC 052D84C3
Track not present in AccurateRip database
Copy OK

Track 6

Filename N:\06 - Viagem.wav

Pre-gap length 0:00:03.21

Peak level 98.1 %
Track quality 100.0 %
Test CRC F84D025C
Copy CRC F84D025C
Track not present in AccurateRip database
Copy OK

Track 7

Filename N:\07 - Terra de ninguem.wav

Pre-gap length 0:00:03.25

Peak level 98.1 %
Track quality 100.0 %
Test CRC D6DA7DF0
Copy CRC D6DA7DF0
Track not present in AccurateRip database
Copy OK

Track 8

Filename N:\08 - Tiao braco forte.wav

Pre-gap length 0:00:03.20

Peak level 98.1 %
Track quality 100.0 %
Test CRC DD0F52AA
Copy CRC DD0F52AA
Track not present in AccurateRip database
Copy OK

Track 9

Filename N:\09 - O amor e chama.wav

Pre-gap length 0:00:03.25

Peak level 97.9 %
Track quality 100.0 %
Test CRC C28D6209
Copy CRC C28D6209
Track not present in AccurateRip database
Copy OK

Track 10

Filename N:\10 - Requiem.wav

Pre-gap length 0:00:02.64

Peak level 98.0 %
Track quality 100.0 %
Test CRC 7A547079
Copy CRC 7A547079
Track not present in AccurateRip database
Copy OK

Track 11

Filename N:\11 - Pelas ruas do Recife.wav

Pre-gap length 0:00:03.21

Peak level 98.1 %
Track quality 100.0 %
Test CRC A3D3B5BA
Copy CRC A3D3B5BA
Track not present in AccurateRip database
Copy OK

Track 12

Filename N:\12 - Eu.wav

Pre-gap length 0:00:03.49

Peak level 98.0 %
Track quality 100.0 %
Test CRC 3233EE2D
Copy CRC 3233EE2D
Track not present in AccurateRip database
Copy OK

Track 13

Filename N:\13 - Terra de ninguem (instrumental).wav

Pre-gap length 0:00:05.58

Peak level 98.0 %
Track quality 99.9 %
Test CRC F770A0A5
Copy CRC F770A0A5
Track not present in AccurateRip database
Copy OK

Track 14

Filename N:\14 - Tiao braco forte (instrumental).wav

Pre-gap length 0:00:03.58

Peak level 98.1 %
Track quality 100.0 %
Test CRC F12EF0EC
Copy CRC F12EF0EC
Track not present in AccurateRip database
Copy OK

Track 15

Filename N:\15 - O amor e chama (instrumental).wav

Pre-gap length 0:00:03.58

Peak level 97.9 %
Track quality 100.0 %
Test CRC 2648DFFE
Copy CRC 2648DFFE
Track not present in AccurateRip database
Copy OK

Track 16

Filename N:\16 - Ultimatum.wav

Pre-gap length 0:00:03.58

Peak level 98.1 %
Track quality 100.0 %
Test CRC 3E70477A
Copy CRC 3E70477A
Track not present in AccurateRip database
Copy OK


None of the tracks are present in the AccurateRip database

No errors occurred

End of status report




Marcos Valle - Tudo: A Discografia Completa de 1963 a 1974 (2011) 11CD Box Set [Re-Up]

Disc 5: Mustang côr de Sangue (1969)
EAC | FLAC | Tracks (Cue&Log) ~ 367 Mb (incl 5%) | Mp3 (CBR320) ~ 170 Mb (incl 5%) | Scans included
Label: EMI Music Brasil | # 026464 2 | Time: 00:45:06

"Mustang Cor De Sangue" (Blood-Colored Mustang) was Marcos Valle's 1969 followup to the introspective and moody "Viola Enluarada," and is much sunnier and upbeat than its predecessor, although perhaps a bit less profound. The songs, however, show Valle to be every bit the equal of the US pop songwriters then making the Top 40 such an groovy place, with the added advantage of authentically Brazilian elements as bossa nova, frevo and toada. All of this is scored and orchestrated with a cinematic flair, along with Valle's patented finger-snapping catchiness. Basically, this is just another Marcos Valle must-own album, one designed to snap you out of a bad mood very quickly!

– Greg C, Amazon

Tracklist:

01. Mustang Cor De Sangue (3:29)
02. Samba De Verao 2 (2:18)
03. Catarina E O Vento (4:15)
04. Frevo Novo (1:57)
05. Azymuth (2:41)
06. Dia De Vitoria (3:22)
07. Os Dentes Brancos Do Mundo (2:47)
08. Mentira Carioca (2:03)
09. Das Tres As Seis (2:26)
10. Tigre Da Esso, Que Sucesso (2:39)
11. O Evangelho Segundo San Quentin (2:55)
12. Dialogo (2:27)

bonus tracks

13. Azymuth (Versao Alternativa) (2:46)
14. Tigre Da Esso, Que Sucesso (Versao Alternativa Instrumental) (2:49)
15. Freio Aerodinamico (Azymuth No. 2) (2:32)
16. Beijo Sideral (3:32)


Exact Audio Copy V0.99 prebeta 5 from 4. May 2009

EAC extraction logfile from 3. August 2011, 20:20

Marcos Valle / Mustang cor de Sangue

Used drive : PLEXTOR DVDR PX-880SA Adapter: 3 ID: 1

Read mode : Secure
Utilize accurate stream : Yes
Defeat audio cache : Yes
Make use of C2 pointers : No

Read offset correction : 6
Overread into Lead-In and Lead-Out : No
Fill up missing offset samples with silence : Yes
Delete leading and trailing silent blocks : No
Null samples used in CRC calculations : Yes
Used interface : Native Win32 interface for Win NT & 2000
Gap handling : Appended to previous track

Used output format : User Defined Encoder
Selected bitrate : 768 kBit/s
Quality : High
Add ID3 tag : No
Command line compressor : C:\Program Files (x86)\Exact Audio Copy\FLAC\FLAC.EXE
Additional command line options : -8 -V -T "ARTIST=%a" -T "TITLE=%t" -T "ALBUM=%g" -T "DATE=%y" -T "TRACKNUMBER=%n" -T "TOTALTRACKS=%x" -T "GENRE=%m" -T "ALBUM ARTIST=%v" -T "ALBUMARTIST=%v" -T "COMMENT=EAC V0.99 prebeta 5, Secure Mode, Test & Copy, Accurat


TOC of the extracted CD

Track | Start | Length | Start sector | End sector
––––––––––––––––––––––––––––-
1 | 0:00.00 | 3:29.28 | 0 | 15702
2 | 3:29.28 | 2:18.46 | 15703 | 26098
3 | 5:47.74 | 4:15.67 | 26099 | 45290
4 | 10:03.66 | 1:57.65 | 45291 | 54130
5 | 12:01.56 | 2:41.13 | 54131 | 66218
6 | 14:42.69 | 3:22.32 | 66219 | 81400
7 | 18:05.26 | 2:47.59 | 81401 | 93984
8 | 20:53.10 | 2:03.63 | 93985 | 103272
9 | 22:56.73 | 2:26.01 | 103273 | 114223
10 | 25:22.74 | 2:39.70 | 114224 | 126218
11 | 28:02.69 | 2:55.20 | 126219 | 139363
12 | 30:58.14 | 2:27.27 | 139364 | 150415
13 | 33:25.41 | 2:46.69 | 150416 | 162934
14 | 36:12.35 | 2:49.02 | 162935 | 175611
15 | 39:01.37 | 2:32.27 | 175612 | 187038
16 | 41:33.64 | 3:32.38 | 187039 | 202976


Track 1

Filename N:\01 - Mustang cor de sangue.wav

Pre-gap length 0:00:02.00

Peak level 98.1 %
Track quality 100.0 %
Test CRC 91814A75
Copy CRC 91814A75
Track not present in AccurateRip database
Copy OK

Track 2

Filename N:\02 - Samba de verao 2.wav

Pre-gap length 0:00:02.92

Peak level 98.1 %
Track quality 100.0 %
Test CRC C3EBA8E1
Copy CRC C3EBA8E1
Track not present in AccurateRip database
Copy OK

Track 3

Filename N:\03 - Catarina e o vento.wav

Pre-gap length 0:00:02.80

Peak level 98.0 %
Track quality 100.0 %
Test CRC 27EFCD3E
Copy CRC 27EFCD3E
Track not present in AccurateRip database
Copy OK

Track 4

Filename N:\04 - Frevo novo.wav

Pre-gap length 0:00:02.81

Peak level 98.0 %
Track quality 99.9 %
Test CRC DA63B03D
Copy CRC DA63B03D
Track not present in AccurateRip database
Copy OK

Track 5

Filename N:\05 - Azymuth.wav

Pre-gap length 0:00:02.85

Peak level 98.1 %
Track quality 100.0 %
Test CRC 0EF486D2
Copy CRC 0EF486D2
Track not present in AccurateRip database
Copy OK

Track 6

Filename N:\06 - Dia de vitoria.wav

Pre-gap length 0:00:02.82

Peak level 98.1 %
Track quality 100.0 %
Test CRC 8AC9A6DD
Copy CRC 8AC9A6DD
Track not present in AccurateRip database
Copy OK

Track 7

Filename N:\07 - Os dentes brancos do mundo.wav

Pre-gap length 0:00:04.24

Peak level 98.1 %
Track quality 100.0 %
Test CRC 9E7C5D47
Copy CRC 9E7C5D47
Track not present in AccurateRip database
Copy OK

Track 8

Filename N:\08 - Mentira carioca.wav

Pre-gap length 0:00:03.57

Peak level 98.1 %
Track quality 99.9 %
Test CRC 99DEE4F5
Copy CRC 99DEE4F5
Track not present in AccurateRip database
Copy OK

Track 9

Filename N:\09 - Das tres as seis.wav

Pre-gap length 0:00:02.77

Peak level 98.1 %
Track quality 100.0 %
Test CRC 14585E65
Copy CRC 14585E65
Track not present in AccurateRip database
Copy OK

Track 10

Filename N:\10 - Tigre da Esso, que sucesso.wav

Pre-gap length 0:00:02.82

Peak level 98.1 %
Track quality 100.0 %
Test CRC F06465FD
Copy CRC F06465FD
Track not present in AccurateRip database
Copy OK

Track 11

Filename N:\11 - O evangelho segundo San Quentin.wav

Pre-gap length 0:00:02.89

Peak level 98.1 %
Track quality 100.0 %
Test CRC 09887A74
Copy CRC 09887A74
Track not present in AccurateRip database
Copy OK

Track 12

Filename N:\12 - Dialogo.wav

Pre-gap length 0:00:02.82

Peak level 98.1 %
Track quality 100.0 %
Test CRC C0F5D940
Copy CRC C0F5D940
Track not present in AccurateRip database
Copy OK

Track 13

Filename N:\13 - Azymuth.wav

Pre-gap length 0:00:05.58

Peak level 98.1 %
Track quality 100.0 %
Test CRC 04FD347A
Copy CRC 04FD347A
Track not present in AccurateRip database
Copy OK

Track 14

Filename N:\14 - Tigre da Esso, que sucesso.wav

Pre-gap length 0:00:03.58

Peak level 98.1 %
Track quality 99.9 %
Test CRC CAE8F9ED
Copy CRC CAE8F9ED
Track not present in AccurateRip database
Copy OK

Track 15

Filename N:\15 - Freio aerodinamico (Azymuth no.2).wav

Pre-gap length 0:00:03.58

Peak level 98.1 %
Track quality 100.0 %
Test CRC 87779CF8
Copy CRC 87779CF8
Track not present in AccurateRip database
Copy OK

Track 16

Filename N:\16 - Beijo sideral.wav

Pre-gap length 0:00:04.58

Peak level 98.1 %
Track quality 99.9 %
Test CRC A39BFD96
Copy CRC A39BFD96
Track not present in AccurateRip database
Copy OK


None of the tracks are present in the AccurateRip database

No errors occurred

End of status report




Marcos Valle - Tudo: A Discografia Completa de 1963 a 1974 (2011) 11CD Box Set [Re-Up]

Disc 6: Marcos Valle (Quarentão Simpático) (1970)
EAC | FLAC | Tracks (Cue&Log) ~ 326 Mb (incl 5%) | Mp3 (CBR320) ~ 153 Mb (incl 5%) | Scans included
Label: EMI Music Brasil | # 026465 2 | Time: 00:41:10

Marcos Valle's self-titled LP from 1970 finds the Brazilian maestro slowly making his way from the poignant bossa nova ballads of Samba '68 to the juiced-up electronic-funk of his mid-'70s masterpieces. Consequently, for every ballad like "Que eu Canse e Descanse" or "Êle e Ela" (the latter complete with giggling and nearly audible lovers' talk), Valle throws in a track like "Pigmalião," featuring a brassy orchestra and tilting rhythms continually being interrupted by jack-in-the-box studio effects, or the final track, "Suite Imaginária," a four-part work of experimental woodwinds, baroque vocal choirs, and soft arrangements. Preceding the suite, however, are two of his finest pop songs: "Os Grilos" and "Freio Aerodinâmico." Definitely not a seamless listen, and since the best tracks are covered well on his hits collections, Marcos Valle is a pick only for you'll-buy-anything collectors floored by everything his hand touches. [The 2001 reissue includes a rarely heard (and radically different) single version of "Os Grilos" from 1967.]

Review by John Bush, Allmusic.com

Tracklist:

01. Quarentao Simpatico (Renatao) (2:22)
02. Ele E Ela (2:24)
03. Dez Leis (4:17)
04. Pigmaliao 70 (2:55)
05. Que Eu Canse E Descanse (3:18)
06. Esperando O Messias (2:50)
07. Freio Aerodinamico (2:42)
08. Os Grilos (2:33)
09. Suite Imaginaria (8:57)

bonus tracks

10. Esperando O Messias (Versao Instrumental) (3:02)
11. Freio Aerodinamico (Versao Instrumental) (2:42)
12. Berenice (3:01)


Exact Audio Copy V0.99 prebeta 5 from 4. May 2009

EAC extraction logfile from 24. July 2011, 0:16

Marcos Valle / Marcos Valle

Used drive : PLEXTOR DVDR PX-880SA Adapter: 3 ID: 1

Read mode : Secure
Utilize accurate stream : Yes
Defeat audio cache : Yes
Make use of C2 pointers : No

Read offset correction : 6
Overread into Lead-In and Lead-Out : No
Fill up missing offset samples with silence : Yes
Delete leading and trailing silent blocks : No
Null samples used in CRC calculations : Yes
Used interface : Native Win32 interface for Win NT & 2000
Gap handling : Appended to previous track

Used output format : User Defined Encoder
Selected bitrate : 768 kBit/s
Quality : High
Add ID3 tag : No
Command line compressor : C:\Program Files (x86)\Exact Audio Copy\FLAC\FLAC.EXE
Additional command line options : -8 -V -T "ARTIST=%a" -T "TITLE=%t" -T "ALBUM=%g" -T "DATE=%y" -T "TRACKNUMBER=%n" -T "TOTALTRACKS=%x" -T "GENRE=%m" -T "ALBUM ARTIST=%v" -T "ALBUMARTIST=%v" -T "COMMENT=EAC V0.99 prebeta 5, Secure Mode, Test & Copy, Accurat


TOC of the extracted CD

Track | Start | Length | Start sector | End sector
––––––––––––––––––––––––––––-
1 | 0:00.00 | 2:22.30 | 0 | 10679
2 | 2:22.30 | 2:24.24 | 10680 | 21503
3 | 4:46.54 | 4:17.59 | 21504 | 40837
4 | 9:04.38 | 2:55.47 | 40838 | 54009
5 | 12:00.10 | 3:18.49 | 54010 | 68908
6 | 15:18.59 | 2:50.31 | 68909 | 81689
7 | 18:09.15 | 2:42.64 | 81690 | 93903
8 | 20:52.04 | 2:33.03 | 93904 | 105381
9 | 23:25.07 | 8:57.39 | 105382 | 145695
10 | 32:22.46 | 3:02.69 | 145696 | 159414
11 | 35:25.40 | 2:42.64 | 159415 | 171628
12 | 38:08.29 | 3:01.70 | 171629 | 185273


Track 1

Filename N:\01 - Quarentao simpatico (Renatao).wav

Pre-gap length 0:00:02.00

Peak level 98.1 %
Track quality 100.0 %
Test CRC 8A8C4003
Copy CRC 8A8C4003
Track not present in AccurateRip database
Copy OK

Track 2

Filename N:\02 - Ele e ela.wav

Pre-gap length 0:00:02.84

Peak level 98.1 %
Track quality 100.0 %
Test CRC C41A8041
Copy CRC C41A8041
Track not present in AccurateRip database
Copy OK

Track 3

Filename N:\03 - Dez leis.wav

Pre-gap length 0:00:02.85

Peak level 98.1 %
Track quality 100.0 %
Test CRC 4B2BF828
Copy CRC 4B2BF828
Track not present in AccurateRip database
Copy OK

Track 4

Filename N:\04 - Pigmaliao 70.wav

Pre-gap length 0:00:02.89

Peak level 98.8 %
Track quality 99.9 %
Test CRC 023ACEC2
Copy CRC 023ACEC2
Track not present in AccurateRip database
Copy OK

Track 5

Filename N:\05 - Que eu canse e descanse.wav

Pre-gap length 0:00:02.81

Peak level 98.1 %
Track quality 100.0 %
Test CRC 65F9C5A6
Copy CRC 65F9C5A6
Track not present in AccurateRip database
Copy OK

Track 6

Filename N:\06 - Esperando o Messias.wav

Pre-gap length 0:00:02.85

Peak level 98.1 %
Track quality 100.0 %
Test CRC F30ADA84
Copy CRC F30ADA84
Track not present in AccurateRip database
Copy OK

Track 7

Filename N:\07 - Freio aerodinamico.wav

Pre-gap length 0:00:02.84

Peak level 98.1 %
Track quality 100.0 %
Test CRC 08FAE060
Copy CRC 08FAE060
Track not present in AccurateRip database
Copy OK

Track 8

Filename N:\08 - Os grilos.wav

Pre-gap length 0:00:03.04

Peak level 98.1 %
Track quality 100.0 %
Test CRC 422DEBB1
Copy CRC 422DEBB1
Track not present in AccurateRip database
Copy OK

Track 9

Filename N:\09 - Suite imaginaria.wav

Pre-gap length 0:00:02.82

Peak level 98.1 %
Track quality 100.0 %
Test CRC C39D3D3D
Copy CRC C39D3D3D
Track not present in AccurateRip database
Copy OK

Track 10

Filename N:\10 - Esperando o Messias (versao instrumental).wav

Pre-gap length 0:00:05.58

Peak level 98.1 %
Track quality 100.0 %
Test CRC 35DB037E
Copy CRC 35DB037E
Track not present in AccurateRip database
Copy OK

Track 11

Filename N:\11 - Freio aerodinamico (versao instrumental).wav

Pre-gap length 0:00:02.66

Peak level 98.1 %
Track quality 100.0 %
Test CRC E7DC79DF
Copy CRC E7DC79DF
Track not present in AccurateRip database
Copy OK

Track 12

Filename N:\12 - Berenice.wav

Pre-gap length 0:00:03.08

Peak level 98.1 %
Track quality 100.0 %
Test CRC 4EF81AFE
Copy CRC 4EF81AFE
Track not present in AccurateRip database
Copy OK


None of the tracks are present in the AccurateRip database

No errors occurred

End of status report




Marcos Valle - Tudo: A Discografia Completa de 1963 a 1974 (2011) 11CD Box Set [Re-Up]

Disc 7: Garra (1971)
EAC | FLAC | Tracks (Cue&Log) ~ 394 Mb (incl 5%) | Mp3 (CBR320) ~ 181 Mb (incl 5%) | Scans included
Label: EMI Music Brasil | # 026466 2 | Time: 00:51:56

Tempering his funkier inclinations to create a Baroque masterpiece of easy listening Brazilian pop, Marcos Valle recorded the most entertaining album of his career, and perhaps the best Brazilian pop album of all time. Garra begins with the elegant "Jesus Meu Rei," with a magisterial men's choir echoing Valle's sentiments while textured piano and organ complete the rich sonic palette. Second track "Com Mais de 30," only the first of several ingenious transitions, offers a light, breezy alternative, bouncing back and forth from main melody to an excellent bridge. Indeed, nearly every song has a bridge as strong as – or stronger than – the main melody, and Valle proves himself a master at weaving together the various studio musicians at his disposal. Valle moves briskly and assuredly from piano lines to acoustic guitar and back for "Com Mais de 30," combines flutes and a Mellotron for a tight bridge on the title track, and coaxes all manner of emotions from a symphonic orchestra – hushed yet gradually building strings, bleating brass – for the unabashed "Black Is Beautiful." Every song is excellent, most in the easy-pop vein of Samba '68. "Wanda Vidal," "Vinte e Seis Anos de Vida Normal," and the perfectly done closer, "O Cafona," are seamless blends of funk and easy listening; the last features a rangy bassline, organ, and wah-wah guitar working together with handclaps and separated men's and women's backing choruses while Valle breathily repeats words and phrases several times before climaxing at the end of nearly every line. Continually besting symphonic seducers from Esquivel to Brian Wilson, Marcos Valle recorded his masterpiece with Garra. [Previously only spottily available, occasionally as a badly mastered CD bootleg, Garra made its first appearance on legal CD courtesy of a 2001 Japanese import, with the bonus track "Berenice."]

Review by John Bush, Allmusic.com

Tracklist:

01. Jesus Meu Rei (3:12)
02. Com Mais De 30 (2:44)
03. Garra (2:59)
04. Black Is Beautiful (4:18)
05. Ao Amigo Tom (2:03)
06. Paz E Futebol (2:34)
07. Que Bandeira (3:04)
08. Wanda Vidal (2:09)
09. Minha Voz Vira Do Sol Da America (4:23)
10. Vinte E Seis Anos De Vida Normal (2:25)
11. O Cafona (3:27)

bonus tracks

12. Com Mais De 30 (Versao Instrumental) (2:49)
13. Garra (Versao Instrumental Em Sol) (2:55)
14. Black Is Beautiful (Versao Instrumental Alternativa) (4:28)
15. Que Bandeira (Versao Instrumental Alternativa) (2:51)
16. Que Bandeira (Versao Instrumental) (3:16)
17. Wanda Vidal (Versao Instrumental) (2:13)


Exact Audio Copy V0.99 prebeta 5 from 4. May 2009

EAC extraction logfile from 24. July 2011, 0:57

Marcos Valle / Garra

Used drive : PLEXTOR DVDR PX-880SA Adapter: 3 ID: 1

Read mode : Secure
Utilize accurate stream : Yes
Defeat audio cache : Yes
Make use of C2 pointers : No

Read offset correction : 6
Overread into Lead-In and Lead-Out : No
Fill up missing offset samples with silence : Yes
Delete leading and trailing silent blocks : No
Null samples used in CRC calculations : Yes
Used interface : Native Win32 interface for Win NT & 2000
Gap handling : Appended to previous track

Used output format : User Defined Encoder
Selected bitrate : 768 kBit/s
Quality : High
Add ID3 tag : No
Command line compressor : C:\Program Files (x86)\Exact Audio Copy\FLAC\FLAC.EXE
Additional command line options : -8 -V -T "ARTIST=%a" -T "TITLE=%t" -T "ALBUM=%g" -T "DATE=%y" -T "TRACKNUMBER=%n" -T "TOTALTRACKS=%x" -T "GENRE=%m" -T "ALBUM ARTIST=%v" -T "ALBUMARTIST=%v" -T "COMMENT=EAC V0.99 prebeta 5, Secure Mode, Test & Copy, Accurat


TOC of the extracted CD

Track | Start | Length | Start sector | End sector
––––––––––––––––––––––––––––-
1 | 0:00.00 | 3:12.02 | 0 | 14401
2 | 3:12.02 | 2:44.17 | 14402 | 26718
3 | 5:56.19 | 2:59.57 | 26719 | 40200
4 | 8:56.01 | 4:18.09 | 40201 | 59559
5 | 13:14.10 | 2:02.71 | 59560 | 68780
6 | 15:17.06 | 2:34.54 | 68781 | 80384
7 | 17:51.60 | 3:04.07 | 80385 | 94191
8 | 20:55.67 | 2:09.68 | 94192 | 103934
9 | 23:05.60 | 4:23.55 | 103935 | 123714
10 | 27:29.40 | 2:25.06 | 123715 | 134595
11 | 29:54.46 | 3:27.52 | 134596 | 150172
12 | 33:22.23 | 2:49.29 | 150173 | 162876
13 | 36:11.52 | 2:55.60 | 162877 | 176061
14 | 39:07.37 | 4:28.13 | 176062 | 196174
15 | 43:35.50 | 2:51.27 | 196175 | 209026
16 | 46:27.02 | 3:16.49 | 209027 | 223775
17 | 49:43.51 | 2:13.16 | 223776 | 233766


Track 1

Filename N:\01 - Jesus meu Rei.wav

Pre-gap length 0:00:02.00

Peak level 98.1 %
Track quality 100.0 %
Test CRC E155744E
Copy CRC E155744E
Track not present in AccurateRip database
Copy OK

Track 2

Filename N:\02 - Com mais de 30.wav

Pre-gap length 0:00:02.80

Peak level 98.1 %
Track quality 100.0 %
Test CRC 9298DF16
Copy CRC 9298DF16
Track not present in AccurateRip database
Copy OK

Track 3

Filename N:\03 - Garra.wav

Pre-gap length 0:00:02.85

Peak level 98.1 %
Track quality 100.0 %
Test CRC 7940D9DC
Copy CRC 7940D9DC
Track not present in AccurateRip database
Copy OK

Track 4

Filename N:\04 - Black is beautiful.wav

Pre-gap length 0:00:02.81

Peak level 98.1 %
Track quality 100.0 %
Test CRC DB42DB33
Copy CRC DB42DB33
Track not present in AccurateRip database
Copy OK

Track 5

Filename N:\05 - Ao amigo Tom.wav

Pre-gap length 0:00:02.88

Peak level 98.0 %
Track quality 100.0 %
Test CRC 88387066
Copy CRC 88387066
Track not present in AccurateRip database
Copy OK

Track 6

Filename N:\06 - Paz e futebol.wav

Pre-gap length 0:00:02.94

Peak level 98.1 %
Track quality 99.9 %
Test CRC 6A0347D5
Copy CRC 6A0347D5
Track not present in AccurateRip database
Copy OK

Track 7

Filename N:\07 - Que bandeira.wav

Pre-gap length 0:00:02.58

Peak level 98.1 %
Track quality 100.0 %
Test CRC F63BB6F4
Copy CRC F63BB6F4
Track not present in AccurateRip database
Copy OK

Track 8

Filename N:\08 - Wanda Vidal.wav

Pre-gap length 0:00:02.88

Peak level 98.1 %
Track quality 100.0 %
Test CRC 5FD71D80
Copy CRC 5FD71D80
Track not present in AccurateRip database
Copy OK

Track 9

Filename N:\09 - Minha voz vira do sol da America.wav

Pre-gap length 0:00:02.93

Peak level 98.0 %
Track quality 100.0 %
Test CRC F0065BA3
Copy CRC F0065BA3
Track not present in AccurateRip database
Copy OK

Track 10

Filename N:\10 - Vinte e seis anos de vida normal.wav

Pre-gap length 0:00:02.90

Peak level 98.1 %
Track quality 100.0 %
Test CRC 67D2AB95
Copy CRC 67D2AB95
Track not present in AccurateRip database
Copy OK

Track 11

Filename N:\11 - O cafona.wav

Pre-gap length 0:00:02.86

Peak level 98.8 %
Track quality 100.0 %
Test CRC 82AEA891
Copy CRC 82AEA891
Track not present in AccurateRip database
Copy OK

Track 12

Filename N:\12 - Com mais de 30 (versao instrumental).wav

Pre-gap length 0:00:05.58

Peak level 98.1 %
Track quality 100.0 %
Test CRC 96004D7D
Copy CRC 96004D7D
Track not present in AccurateRip database
Copy OK

Track 13

Filename N:\13 - Garra (versao instrumental em sol).wav

Pre-gap length 0:00:02.84

Peak level 98.1 %
Track quality 100.0 %
Test CRC D9CF8A07
Copy CRC D9CF8A07
Track not present in AccurateRip database
Copy OK

Track 14

Filename N:\14 - Black is beautiful (versao instrumental alternativa).wav

Pre-gap length 0:00:02.92

Peak level 98.1 %
Track quality 100.0 %
Test CRC 717A1DE7
Copy CRC 717A1DE7
Track not present in AccurateRip database
Copy OK

Track 15

Filename N:\15 - Que bandeira (versao instrumental alternativa).wav

Pre-gap length 0:00:02.88

Peak level 98.1 %
Track quality 99.9 %
Test CRC E6AB8F04
Copy CRC E6AB8F04
Track not present in AccurateRip database
Copy OK

Track 16

Filename N:\16 - Que bandeira (versao instrumental).wav

Pre-gap length 0:00:02.92

Peak level 98.1 %
Track quality 100.0 %
Test CRC 2F49989B
Copy CRC 2F49989B
Track not present in AccurateRip database
Copy OK

Track 17

Filename N:\17 - Wanda Vidal (versao instrumental).wav

Pre-gap length 0:00:02.90

Peak level 98.1 %
Track quality 100.0 %
Test CRC 5EF1F137
Copy CRC 5EF1F137
Track not present in AccurateRip database
Copy OK


None of the tracks are present in the AccurateRip database

No errors occurred

End of status report




Marcos Valle - Tudo: A Discografia Completa de 1963 a 1974 (2011) 11CD Box Set [Re-Up]

Disc 8: Vento Sul (1972)
EAC | FLAC | Tracks (Cue&Log) ~ 265 Mb (incl 5%) | Mp3 (CBR320) ~ 138 Mb (incl 5%) | Scans included
Label: EMI Music Brasil | # 026468 2 | Time: 00:34:52

Marcos Valle made his first mark in the recording world with bossa nova and samba. But by the time of this early-'70s album, he was just about a rock artist, even if much Brazilian pop (and some jazz) remained in his music. It's possible to hear some influences from art rock in the harmonies and arrangements of cuts like the opening "Revolucao," with its dancing flute and hard rock guitar, though in other respects the album is more in the tropicalia style. Some of the vocal harmonies, whether intentionally or not, stray rather close to wistful Beach Boys-type sounds (particularly on "Mi Hermoza"), and the instrumental "Bodas de Sangu" sounds a little like the wordless miniatures that Brian Wilson was composing in his Baroque period. Wah-wah guitar, flutes, harpsichord, and demonic spoken recitations pull the title track away from the rather ordinary jazz-rock fusion it would be otherwise. It's an attractive album on the whole, though it also leaves the impression of someone not entirely sure of what directions he wants to explore.

Review by Richie Unterberger, Allmusic.com

Tracklist:

01. Revolucao Organica (3:00)
02. Malena (2:06)
03. Pista 02 (1:56)
04. Voo Cego (3:28)
05. Bodas De Sangue (3:22)
06. Democustico (2:24)
07. Vento Sul (2:54)
08. Rosto Barbado (2:55)
09. Mi Hermoza (4:12)
10. Paisagem De Mariana (2:35)
11. Dexia O Mundo E O Sol Entrar (3:30)

bonus tracks

12. O Beato (2:27)


Exact Audio Copy V0.99 prebeta 5 from 4. May 2009

EAC extraction logfile from 26. July 2011, 16:37

Marcos Valle / Vento Sul

Used drive : PLEXTOR DVDR PX-880SA Adapter: 3 ID: 1

Read mode : Secure
Utilize accurate stream : Yes
Defeat audio cache : Yes
Make use of C2 pointers : No

Read offset correction : 6
Overread into Lead-In and Lead-Out : No
Fill up missing offset samples with silence : Yes
Delete leading and trailing silent blocks : No
Null samples used in CRC calculations : Yes
Used interface : Native Win32 interface for Win NT & 2000
Gap handling : Appended to previous track

Used output format : User Defined Encoder
Selected bitrate : 768 kBit/s
Quality : High
Add ID3 tag : No
Command line compressor : C:\Program Files (x86)\Exact Audio Copy\FLAC\FLAC.EXE
Additional command line options : -8 -V -T "ARTIST=%a" -T "TITLE=%t" -T "ALBUM=%g" -T "DATE=%y" -T "TRACKNUMBER=%n" -T "TOTALTRACKS=%x" -T "GENRE=%m" -T "ALBUM ARTIST=%v" -T "ALBUMARTIST=%v" -T "COMMENT=EAC V0.99 prebeta 5, Secure Mode, Test & Copy, Accurat


TOC of the extracted CD

Track | Start | Length | Start sector | End sector
––––––––––––––––––––––––––––-
1 | 0:00.00 | 3:00.28 | 0 | 13527
2 | 3:00.28 | 2:06.11 | 13528 | 22988
3 | 5:06.39 | 1:56.38 | 22989 | 31726
4 | 7:03.02 | 3:28.10 | 31727 | 47336
5 | 10:31.12 | 3:22.33 | 47337 | 62519
6 | 13:53.45 | 2:24.20 | 62520 | 73339
7 | 16:17.65 | 2:54.27 | 73340 | 86416
8 | 19:12.17 | 2:55.21 | 86417 | 99562
9 | 22:07.38 | 4:12.01 | 99563 | 118463
10 | 26:19.39 | 2:35.35 | 118464 | 130123
11 | 28:54.74 | 3:30.52 | 130124 | 145925
12 | 32:25.51 | 2:27.21 | 145926 | 156971


Track 1

Filename N:\01 - Revolucao organica.wav

Pre-gap length 0:00:02.00

Peak level 98.0 %
Track quality 100.0 %
Test CRC A6CDB792
Copy CRC A6CDB792
Track not present in AccurateRip database
Copy OK

Track 2

Filename N:\02 - Malena.wav

Pre-gap length 0:00:02.34

Peak level 98.1 %
Track quality 99.9 %
Test CRC 4172A1A8
Copy CRC 4172A1A8
Track not present in AccurateRip database
Copy OK

Track 3

Filename N:\03 - Pista 02.wav

Pre-gap length 0:00:02.42

Peak level 98.1 %
Track quality 100.0 %
Test CRC 6A3768E6
Copy CRC 6A3768E6
Track not present in AccurateRip database
Copy OK

Track 4

Filename N:\04 - Voo cego.wav

Pre-gap length 0:00:02.33

Peak level 98.0 %
Track quality 100.0 %
Test CRC 28ABE8C8
Copy CRC 28ABE8C8
Track not present in AccurateRip database
Copy OK

Track 5

Filename N:\05 - Bodas de sangue.wav

Pre-gap length 0:00:02.32

Peak level 94.0 %
Track quality 100.0 %
Test CRC B3E5A303
Copy CRC B3E5A303
Track not present in AccurateRip database
Copy OK

Track 6

Filename N:\06 - Democustico.wav

Pre-gap length 0:00:01.89

Peak level 98.1 %
Track quality 100.0 %
Test CRC B07A007A
Copy CRC B07A007A
Track not present in AccurateRip database
Copy OK

Track 7

Filename N:\07 - Vento sul.wav

Pre-gap length 0:00:02.45

Peak level 98.0 %
Track quality 100.0 %
Test CRC 21277788
Copy CRC 21277788
Track not present in AccurateRip database
Copy OK

Track 8

Filename N:\08 - Rosto barbado.wav

Pre-gap length 0:00:02.30

Peak level 98.0 %
Track quality 100.0 %
Test CRC 4F5ED8AA
Copy CRC 4F5ED8AA
Track not present in AccurateRip database
Copy OK

Track 9

Filename N:\09 - Mi hermoza.wav

Pre-gap length 0:00:02.42

Peak level 98.1 %
Track quality 99.9 %
Test CRC FCD26238
Copy CRC FCD26238
Track not present in AccurateRip database
Copy OK

Track 10

Filename N:\10 - Paisagem de Mariana.wav

Pre-gap length 0:00:02.30

Peak level 97.9 %
Track quality 100.0 %
Test CRC 7FDAE760
Copy CRC 7FDAE760
Track not present in AccurateRip database
Copy OK

Track 11

Filename N:\11 - Dexia o mundo e o sol entrar.wav

Pre-gap length 0:00:02.34

Peak level 98.0 %
Track quality 100.0 %
Test CRC D50FBFAC
Copy CRC D50FBFAC
Track not present in AccurateRip database
Copy OK

Track 12

Filename N:\12 - O beato.wav

Pre-gap length 0:00:04.58

Peak level 98.2 %
Track quality 100.0 %
Test CRC 8BD00FD9
Copy CRC 8BD00FD9
Track not present in AccurateRip database
Copy OK


None of the tracks are present in the AccurateRip database

No errors occurred

End of status report




Marcos Valle - Tudo: A Discografia Completa de 1963 a 1974 (2011) 11CD Box Set [Re-Up]

Disc 9: Previsão do Tempo (1973)
EAC | FLAC | Tracks (Cue&Log) ~ 281 Mb (incl 5%) | Mp3 (CBR320) ~ 140 Mb (incl 5%) | Scans included
Label: EMI Music Brasil | # 026468 2 | Time: 00:36:07

A real delight! Valle was clearly just out to have a good time with this goofy, funky album, singing super-hummable tunes like "Mentira" and "Previsao Do Tempo," the chirpy title track. Along for the ride are arranger Waltel Branco and Valle's brother, Paulo Sergio Valle, as well as Jose Roberto Bertami and members of his band, Azymuth, lending some sweeping, playful monster Moog riffs. This is certainly one of the catchiest and most memorable of Valle's albums, packed with playful songs and a lighthearted vibe that will keep the tunes echoing in your mind for hours on end… Recommended!

Slipcue.com, Guide to Brazilian Music

Tracklist:

01. Flamengo Ate Morrer (3:27)
02. Nem Paleto Nem Gravata (3:00)
03. Tira A Mao (2:49)
04. Mentira (Chega De Mentira) (3:43)
05. Previsao Do Tempo (3:37)
06. Mais Do Que Valsa (2:53)
07. Os Ossos Do Barao (2:19)
08. Nao Tem Nada, Nao (3:11)
09. Neo Tem Nada, Neo (II) (1:27)
10. Samba Fatal (3:06)
11. Tiu-Ba-La-Queiba (3:26)
12. De Repente, Moca-Flor (3:05)


Exact Audio Copy V0.99 prebeta 5 from 4. May 2009

EAC extraction logfile from 27. July 2011, 22:48

Marcos Valle / Previsao do Tempo

Used drive : PLEXTOR DVDR PX-880SA Adapter: 3 ID: 1

Read mode : Secure
Utilize accurate stream : Yes
Defeat audio cache : Yes
Make use of C2 pointers : No

Read offset correction : 6
Overread into Lead-In and Lead-Out : No
Fill up missing offset samples with silence : Yes
Delete leading and trailing silent blocks : No
Null samples used in CRC calculations : Yes
Used interface : Native Win32 interface for Win NT & 2000
Gap handling : Appended to previous track

Used output format : User Defined Encoder
Selected bitrate : 768 kBit/s
Quality : High
Add ID3 tag : No
Command line compressor : C:\Program Files (x86)\Exact Audio Copy\FLAC\FLAC.EXE
Additional command line options : -8 -V -T "ARTIST=%a" -T "TITLE=%t" -T "ALBUM=%g" -T "DATE=%y" -T "TRACKNUMBER=%n" -T "TOTALTRACKS=%x" -T "GENRE=%m" -T "ALBUM ARTIST=%v" -T "ALBUMARTIST=%v" -T "COMMENT=EAC V0.99 prebeta 5, Secure Mode, Test & Copy, Accurat


TOC of the extracted CD

Track | Start | Length | Start sector | End sector
––––––––––––––––––––––––––––-
1 | 0:00.00 | 3:27.33 | 0 | 15557
2 | 3:27.33 | 3:00.48 | 15558 | 29105
3 | 6:28.06 | 2:49.00 | 29106 | 41780
4 | 9:17.06 | 3:43.22 | 41781 | 58527
5 | 13:00.28 | 3:37.44 | 58528 | 74846
6 | 16:37.72 | 2:53.04 | 74847 | 87825
7 | 19:31.01 | 2:19.09 | 87826 | 98259
8 | 21:50.10 | 3:11.23 | 98260 | 112607
9 | 25:01.33 | 1:27.46 | 112608 | 119178
10 | 26:29.04 | 3:06.45 | 119179 | 133173
11 | 29:35.49 | 3:26.68 | 133174 | 148691
12 | 33:02.42 | 3:05.05 | 148692 | 162571


Track 1

Filename N:\01 - Flamengo ate morrer.wav

Pre-gap length 0:00:02.00

Peak level 98.1 %
Track quality 100.0 %
Test CRC 4356CB67
Copy CRC 4356CB67
Track not present in AccurateRip database
Copy OK

Track 2

Filename N:\02 - Nem paleto nem gravata.wav

Pre-gap length 0:00:02.00

Peak level 98.1 %
Track quality 99.9 %
Test CRC CFD55657
Copy CRC CFD55657
Track not present in AccurateRip database
Copy OK

Track 3

Filename N:\03 - Tira a mao.wav

Pre-gap length 0:00:01.97

Peak level 98.1 %
Track quality 99.9 %
Test CRC A5A3B06F
Copy CRC A5A3B06F
Track not present in AccurateRip database
Copy OK

Track 4

Filename N:\04 - Mentira (Chega de mentira).wav

Pre-gap length 0:00:02.06

Peak level 98.0 %
Track quality 100.0 %
Test CRC 63ACCCD4
Copy CRC 63ACCCD4
Track not present in AccurateRip database
Copy OK

Track 5

Filename N:\05 - Previsao do tempo.wav

Pre-gap length 0:00:02.18

Peak level 98.0 %
Track quality 100.0 %
Test CRC 9E9D2C85
Copy CRC 9E9D2C85
Track not present in AccurateRip database
Copy OK

Track 6

Filename N:\06 - Mais do que valsa.wav

Pre-gap length 0:00:02.09

Peak level 98.0 %
Track quality 100.0 %
Test CRC A7862A27
Copy CRC A7862A27
Track not present in AccurateRip database
Copy OK

Track 7

Filename N:\07 - Os ossos do barao.wav

Pre-gap length 0:00:03.93

Peak level 98.1 %
Track quality 99.9 %
Test CRC 5568946E
Copy CRC 5568946E
Track not present in AccurateRip database
Copy OK

Track 8

Filename N:\08 - Nao tem nada, nao.wav

Pre-gap length 0:00:02.05

Peak level 98.0 %
Track quality 100.0 %
Test CRC D8E7FD69
Copy CRC D8E7FD69
Track not present in AccurateRip database
Copy OK

Track 9

Filename N:\09 - Nao tem nada, nao (II).wav

Peak level 98.0 %
Track quality 100.0 %
Test CRC B69AB96E
Copy CRC B69AB96E
Track not present in AccurateRip database
Copy OK

Track 10

Filename N:\10 - Samba fatal.wav

Pre-gap length 0:00:02.08

Peak level 98.0 %
Track quality 99.9 %
Test CRC 23152938
Copy CRC 23152938
Track not present in AccurateRip database
Copy OK

Track 11

Filename N:\11 - Tiu-ba-la-queiba.wav

Pre-gap length 0:00:02.00

Peak level 98.1 %
Track quality 100.0 %
Test CRC BB0ABB72
Copy CRC BB0ABB72
Track not present in AccurateRip database
Copy OK

Track 12

Filename N:\12 - De repente, moca-flor.wav

Pre-gap length 0:00:02.13

Peak level 93.4 %
Track quality 100.0 %
Test CRC 6B14E320
Copy CRC 6B14E320
Track not present in AccurateRip database
Copy OK


None of the tracks are present in the AccurateRip database

No errors occurred

End of status report




Marcos Valle - Tudo: A Discografia Completa de 1963 a 1974 (2011) 11CD Box Set [Re-Up]

Disc 10: Marcos Valle (No Rumo Do Sol) (1974)
EAC | FLAC | Tracks (Cue&Log) ~ 246 Mb (incl 5%) | Mp3 (CBR320) ~ 129 Mb (incl 5%) | Scans included
Label: EMI Music Brasil | # 026469 2 | Time: 00:30:28


Tracklist:

01. No rumo do sol (2:32)
02. Meu heroi (2:36)
03. So se morre uma vez (2:33)
04. Casamento, filhos e convencoes (2:24)
05. Remedio pro coracao (2:31)
06. Brazil x Mexico (1:41)
07. Tango (3:03)
08. Nossa vida comeca na gente (2:59)
09. Novelo de la (2:05)
10. Caboaia (3:10)
11. Charlie Bravo (Instrumental) (4:50)


Exact Audio Copy V0.99 prebeta 5 from 4. May 2009

EAC extraction logfile from 28. July 2011, 0:16

Marcos Valle / Marcos Valle

Used drive : PLEXTOR DVDR PX-880SA Adapter: 3 ID: 1

Read mode : Secure
Utilize accurate stream : Yes
Defeat audio cache : Yes
Make use of C2 pointers : No

Read offset correction : 6
Overread into Lead-In and Lead-Out : No
Fill up missing offset samples with silence : Yes
Delete leading and trailing silent blocks : No
Null samples used in CRC calculations : Yes
Used interface : Native Win32 interface for Win NT & 2000
Gap handling : Appended to previous track

Used output format : User Defined Encoder
Selected bitrate : 768 kBit/s
Quality : High
Add ID3 tag : No
Command line compressor : C:\Program Files (x86)\Exact Audio Copy\FLAC\FLAC.EXE
Additional command line options : -8 -V -T "ARTIST=%a" -T "TITLE=%t" -T "ALBUM=%g" -T "DATE=%y" -T "TRACKNUMBER=%n" -T "TOTALTRACKS=%x" -T "GENRE=%m" -T "ALBUM ARTIST=%v" -T "ALBUMARTIST=%v" -T "COMMENT=EAC V0.99 prebeta 5, Secure Mode, Test & Copy, Accurat


TOC of the extracted CD

Track | Start | Length | Start sector | End sector
––––––––––––––––––––––––––––-
1 | 0:00.00 | 2:32.11 | 0 | 11410
2 | 2:32.11 | 2:36.51 | 11411 | 23161
3 | 5:08.62 | 2:33.27 | 23162 | 34663
4 | 7:42.14 | 2:24.58 | 34664 | 45521
5 | 10:06.72 | 2:31.14 | 45522 | 56860
6 | 12:38.11 | 1:41.10 | 56861 | 64445
7 | 14:19.21 | 3:03.31 | 64446 | 78201
8 | 17:22.52 | 2:59.39 | 78202 | 91665
9 | 20:22.16 | 2:05.73 | 91666 | 101113
10 | 22:28.14 | 3:10.43 | 101114 | 115406
11 | 25:38.57 | 4:50.14 | 115407 | 137170


Track 1

Filename N:\01 - No rumo do sol.wav

Pre-gap length 0:00:02.00

Peak level 98.1 %
Track quality 100.0 %
Test CRC 1D6F0CB5
Copy CRC 1D6F0CB5
Track not present in AccurateRip database
Copy OK

Track 2

Filename N:\02 - Meu heroi.wav

Pre-gap length 0:00:01.98

Peak level 98.1 %
Track quality 100.0 %
Test CRC BEAA0891
Copy CRC BEAA0891
Track not present in AccurateRip database
Copy OK

Track 3

Filename N:\03 - So se morre uma vez.wav

Pre-gap length 0:00:02.01

Peak level 97.9 %
Track quality 100.0 %
Test CRC C6887B65
Copy CRC C6887B65
Track not present in AccurateRip database
Copy OK

Track 4

Filename N:\04 - Casamento, filhos e convencoes.wav

Pre-gap length 0:00:03.06

Peak level 98.0 %
Track quality 99.9 %
Test CRC 1A6B6798
Copy CRC 1A6B6798
Track not present in AccurateRip database
Copy OK

Track 5

Filename N:\05 - Remedio pro coracao.wav

Pre-gap length 0:00:01.98

Peak level 93.9 %
Track quality 100.0 %
Test CRC B353A450
Copy CRC B353A450
Track not present in AccurateRip database
Copy OK

Track 6

Filename N:\06 - Brazil x Mexico.wav

Pre-gap length 0:00:02.29

Peak level 98.0 %
Track quality 100.0 %
Test CRC 2EC6FD68
Copy CRC 2EC6FD68
Track not present in AccurateRip database
Copy OK

Track 7

Filename N:\07 - Tango.wav

Pre-gap length 0:00:02.02

Peak level 98.1 %
Track quality 100.0 %
Test CRC 97887919
Copy CRC 97887919
Track not present in AccurateRip database
Copy OK

Track 8

Filename N:\08 - Nossa vida comeca na gente.wav

Pre-gap length 0:00:02.57

Peak level 98.1 %
Track quality 100.0 %
Test CRC 4E451A6A
Copy CRC 4E451A6A
Track not present in AccurateRip database
Copy OK

Track 9

Filename N:\09 - Novelo de la.wav

Pre-gap length 0:00:01.98

Peak level 98.0 %
Track quality 100.0 %
Test CRC EFF2C61C
Copy CRC EFF2C61C
Track not present in AccurateRip database
Copy OK

Track 10

Filename N:\10 - Caboaia.wav

Pre-gap length 0:00:01.89

Peak level 98.0 %
Track quality 99.9 %
Test CRC AEF79D62
Copy CRC AEF79D62
Track not present in AccurateRip database
Copy OK

Track 11

Filename N:\11 - Cahrlie Bravo (instrumental).wav

Pre-gap length 0:00:02.04

Peak level 87.4 %
Track quality 100.0 %
Test CRC CBC6A0A2
Copy CRC CBC6A0A2
Track not present in AccurateRip database
Copy OK


None of the tracks are present in the AccurateRip database

No errors occurred

End of status report




Marcos Valle - Tudo: A Discografia Completa de 1963 a 1974 (2011) 11CD Box Set [Re-Up]

Disc 11: The Lost Sessions 1966 (2011)
EAC | FLAC | Tracks (Cue&Log) ~ 272 Mb (incl 5%) | Mp3 (CBR320) ~ 144 Mb (incl 5%) | Scans included
Label: EMI Music Brasil | # 026471 2 | Time: 00:33:19

This is actually the "last" disc in the boxset but I am sharing it out of respect for several regular blog readers, particularly pawylshyn, who know much more about Marcos than I do and who are being tortured by the long wait for this disc of 'unreleased' material. In fact quite a few tracks appeared on the expensive Japanese pressings of the normal albums (which I believe he has, all of them..) but this album's release is still a blessing to the world This is the album Marcos was working on when his second album – containing the hits of the title track (Preciso Aprender Ser Só) and *especially* "Samba de Verão", which was covered in the US by Frank Sinatra, Connie Francis, and Ruben & The Jets – blew up on the record charts and he became an internationally-known name. Enter Ray Gilberto, most famous for writing that lovely song "Zip-a-dee-doo-dah", but who at the time was writing English lyrics for Tom Jobim's compositions to be released stateside. So basically they convinced Marcos to stop what he was working on, record a mostly instrumental album that I don't think is very good (Braziliance!, although we've established opinions differ on that one) and then go to the US and make 'Samba 68' (which IS good). The abandoned album has had tracks show up here and there, mostly on the expensive Japanese reissues of some of his original catalog. But here is the original albumas it was when Marcos abandoned it. I'll hremark again how cool I think it is that he left things just as they found them when they dug out the master tapes. No additional overdubs or studio trickery. The result is a somewhat spare but beautiful record that leaves it to our imaginations to 'complete'. It would have come between two of Marcos' most profound albums (O compositor e o cantor and A viola enluarda) had he not embarked on his "American journey".

Tracklist:

01. Os Grilos (Crickets Sing For Ana Maria) (2:16)
02. Uma Lagrima (3:25)
03. La Eu Nao Vou (2:12)
04. Batucada Surgiu (2:12)
05. Primeira Solidao (3:20)
06. O Amor E Chama (3:31)
07. E Preciso Cantar (1:59)
08. Pensa (2:23)
09. Mais Vale Uma Cancao (2:18)
10. Lenda (2:28)
11. Se Voce Soubesse (2:32)
12. Os Grilos (Versao Instrumental) (2:26)
13. Batucada Surgiu (Versao Instrumental) (2:09)


Exact Audio Copy V0.99 prebeta 5 from 4. May 2009

EAC extraction logfile from 5. August 2011, 1:36

Marcos Valle / The Lost Sessions

Used drive : PLEXTOR DVDR PX-880SA Adapter: 3 ID: 1

Read mode : Secure
Utilize accurate stream : Yes
Defeat audio cache : Yes
Make use of C2 pointers : No

Read offset correction : 6
Overread into Lead-In and Lead-Out : No
Fill up missing offset samples with silence : Yes
Delete leading and trailing silent blocks : No
Null samples used in CRC calculations : Yes
Used interface : Native Win32 interface for Win NT & 2000
Gap handling : Appended to previous track

Used output format : User Defined Encoder
Selected bitrate : 768 kBit/s
Quality : High
Add ID3 tag : No
Command line compressor : C:\Program Files (x86)\Exact Audio Copy\FLAC\FLAC.EXE
Additional command line options : -8 -V -T "ARTIST=%a" -T "TITLE=%t" -T "ALBUM=%g" -T "DATE=%y" -T "TRACKNUMBER=%n" -T "TOTALTRACKS=%x" -T "GENRE=%m" -T "ALBUM ARTIST=%v" -T "ALBUMARTIST=%v" -T "COMMENT=EAC V0.99 prebeta 5, Secure Mode, Test & Copy, Accurat


TOC of the extracted CD

Track | Start | Length | Start sector | End sector
––––––––––––––––––––––––––––-
1 | 0:00.00 | 2:16.41 | 0 | 10240
2 | 2:16.41 | 3:25.24 | 10241 | 25639
3 | 5:41.65 | 2:12.49 | 25640 | 35588
4 | 7:54.39 | 2:12.46 | 35589 | 45534
5 | 10:07.10 | 3:20.02 | 45535 | 60536
6 | 13:27.12 | 3:31.67 | 60537 | 76428
7 | 16:59.04 | 1:59.52 | 76429 | 85405
8 | 18:58.56 | 2:23.60 | 85406 | 96190
9 | 21:22.41 | 2:18.53 | 96191 | 106593
10 | 23:41.19 | 2:28.55 | 106594 | 117748
11 | 26:09.74 | 2:32.24 | 117749 | 129172
12 | 28:42.23 | 2:26.65 | 129173 | 140187
13 | 31:09.13 | 2:09.69 | 140188 | 149931


Track 1

Filename N:\01 - Os grilos.wav

Pre-gap length 0:00:02.00

Peak level 98.1 %
Track quality 100.0 %
Test CRC 762AEB6A
Copy CRC 762AEB6A
Track not present in AccurateRip database
Copy OK

Track 2

Filename N:\02 - Uma lagrima.wav

Pre-gap length 0:00:03.58

Peak level 98.0 %
Track quality 100.0 %
Test CRC A772FBB5
Copy CRC A772FBB5
Track not present in AccurateRip database
Copy OK

Track 3

Filename N:\03 - La eu nao vou.wav

Pre-gap length 0:00:03.58

Peak level 98.1 %
Track quality 100.0 %
Test CRC EA5EFCE9
Copy CRC EA5EFCE9
Track not present in AccurateRip database
Copy OK

Track 4

Filename N:\04 - Batucada surgiu.wav

Pre-gap length 0:00:03.58

Peak level 98.0 %
Track quality 100.0 %
Test CRC B5CE1159
Copy CRC B5CE1159
Track not present in AccurateRip database
Copy OK

Track 5

Filename N:\05 - Primeira solidao.wav

Pre-gap length 0:00:03.58

Peak level 98.1 %
Track quality 100.0 %
Test CRC CFFAADD9
Copy CRC CFFAADD9
Track not present in AccurateRip database
Copy OK

Track 6

Filename N:\06 - O amor e chama.wav

Pre-gap length 0:00:03.58

Peak level 98.0 %
Track quality 100.0 %
Test CRC 0CD7DD76
Copy CRC 0CD7DD76
Track not present in AccurateRip database
Copy OK

Track 7

Filename N:\07 - E preciso cantar.wav

Pre-gap length 0:00:03.68

Peak level 98.1 %
Track quality 100.0 %
Test CRC 571FB6FA
Copy CRC 571FB6FA
Track not present in AccurateRip database
Copy OK

Track 8

Filename N:\08 - Pensa.wav

Pre-gap length 0:00:03.58

Peak level 98.0 %
Track quality 99.9 %
Test CRC C96BC639
Copy CRC C96BC639
Track not present in AccurateRip database
Copy OK

Track 9

Filename N:\09 - Mais vale uma cancao.wav

Pre-gap length 0:00:03.58

Peak level 98.1 %
Track quality 100.0 %
Test CRC 0D7FCC16
Copy CRC 0D7FCC16
Track not present in AccurateRip database
Copy OK

Track 10

Filename N:\10 - Lenda.wav

Pre-gap length 0:00:03.58

Peak level 98.1 %
Track quality 99.9 %
Test CRC 5A9F89E5
Copy CRC 5A9F89E5
Track not present in AccurateRip database
Copy OK

Track 11

Filename N:\11 - Se voce soubesse.wav

Pre-gap length 0:00:03.58

Peak level 98.1 %
Track quality 100.0 %
Test CRC FC4A8DA9
Copy CRC FC4A8DA9
Track not present in AccurateRip database
Copy OK

Track 12

Filename N:\12 - Os grilos.wav

Pre-gap length 0:00:06.58

Peak level 98.1 %
Track quality 100.0 %
Test CRC 23DE7C95
Copy CRC 23DE7C95
Track not present in AccurateRip database
Copy OK

Track 13

Filename N:\13 - Batucada surgiu.wav

Pre-gap length 0:00:03.58

Peak level 98.1 %
Track quality 100.0 %
Test CRC 866AAD4E
Copy CRC 866AAD4E
Track not present in AccurateRip database
Copy OK


None of the tracks are present in the AccurateRip database

No errors occurred

End of status report