Tags
Language
Tags

Maria Muldaur - Naughty, Bawdy & Blue (2007)

Posted By: popsakov
Maria Muldaur - Naughty, Bawdy & Blue (2007)

Maria Muldaur - Naughty, Bawdy & Blue (2007)
EAC Rip | FLAC (Img) + Cue + Log ~ 280 Mb | MP3 CBR320 ~ 120 Mb
Full Scans | 00:45:37 | RAR 5% Recovery
Jazz, Blues | Stony Plain / Irond Ltd. IROND CD 08-K057

Maria Muldaur's trilogy of old-timey blues and jazz releases for the Stony Plain imprint (she simultaneously records more contemporary music for the Telarc label) concludes with this appropriately titled set. Much is made in the liner notes of the veteran jazz/blues/pop/gospel singer being mentored in her early jugband years by no less of an icon than Victoria Spivey, so it seems Muldaur feels this tribute to the style and material of Spivey and other "classic blues queens" of the '20s and '30s is a sort of closure. It is also a history lesson, with detailed booklet information, some of it written by Muldaur, providing fascinating capsule biographies of the women whose music is covered here. Muldaur sure has the pipes and integrity for this approach, alternatively playful, sexy and downtrodden, and these dozen tracks find her inspired both by the strong, occasionally humorous material and the superb backing musicians in James Dapogny's Chicago Jazz Band. There is no attempt to modernize these classic vaudeville and Dixieland era tunes; rather the intent is to be true to the original style with acoustic backing played in, and with, the spirit that made them so popular in their day. Muldaur invigorates the incessant double entendres that surely caused lecherous grins when listeners heard Bessie Smith's "Empty Bed Blues" or Spivey's "One Hour Mama" for the first time. Bonnie Raitt swings by for a cameo on Sippie Wallace's "Separation Blues," graciously not stealing the spotlight, but using her presence to pay tribute to one of her own inspirations. Other blues women covered here are Mamie Smith, Ma Rainey and Alberta Hunter. Muldaur's versions aren't simply covers, they reinvigorate the material, keeping the focus on the lyrics while Dapogny's group swings along. It's a fun, frisky and enlightening ride from a vocalist who has always promoted this music mixed in with her other styles, and an album that leaves the listener anticipating a follow-up.

~ Hal Horowitz, All Music

***************

Track List:

01. Down Home Blues [3:25]
02. Up The Country Blues [3:19]
03. Separation Blues (with Bonnie Raitt) [4:45]
04. A Good Man Is Hard To Find [3:57]
05. Handy Man [4:01]
06. New Orleans Hop Scop Blues [3:34]
07. Smile [3:38]
08. TB Blues [3:12]
09. One Hour Mama [3:08]
10. Empty Bed Blues [6:24]
11. Early Every Morn [3:35]
12. Yonder Come the Blues [2:45]

Exact Audio Copy V1.0 beta 3 from 29. August 2011

EAC extraction logfile from 4. April 2017, 20:09

Maria Muldaur / Naughty Bawdy & Blue

Used drive : PLEXTOR DVDR PX-740A Adapter: 0 ID: 0

Read mode : Secure
Utilize accurate stream : Yes
Defeat audio cache : Yes
Make use of C2 pointers : No

Read offset correction : 618
Overread into Lead-In and Lead-Out : No
Fill up missing offset samples with silence : Yes
Delete leading and trailing silent blocks : No
Null samples used in CRC calculations : Yes
Used interface : Native Win32 interface for Win NT & 2000

Used output format : Internal WAV Routines
Sample format : 44.100 Hz; 16 Bit; Stereo


TOC of the extracted CD

Track | Start | Length | Start sector | End sector
––––––––––––––––––––––––––––-
1 | 0:00.00 | 3:24.31 | 0 | 15330
2 | 3:24.31 | 3:18.29 | 15331 | 30209
3 | 6:42.60 | 4:44.50 | 30210 | 51559
4 | 11:27.35 | 3:56.55 | 51560 | 69314
5 | 15:24.15 | 4:00.05 | 69315 | 87319
6 | 19:24.20 | 3:33.62 | 87320 | 103356
7 | 22:58.07 | 3:37.35 | 103357 | 119666
8 | 26:35.42 | 3:11.02 | 119667 | 133993
9 | 29:46.44 | 3:07.43 | 133994 | 148061
10 | 32:54.12 | 6:23.05 | 148062 | 176791
11 | 39:17.17 | 3:34.41 | 176792 | 192882
12 | 42:51.58 | 2:44.46 | 192883 | 205228


Range status and errors

Selected range

Filename C:\MUSIC\CD Rips_J\Maria M 2007\Maria Muldaur - Naughty Bawdy & Blue.wav

Peak level 98.8 %
Extraction speed 8.5 X
Range quality 100.0 %
Test CRC 547B9BD2
Copy CRC 547B9BD2
Copy OK

No errors occurred


AccurateRip summary

Track 1 cannot be verified as accurate (confidence 19) [BA327465], AccurateRip returned [351CD0FE] (AR v2)
Track 2 cannot be verified as accurate (confidence 19) [78A008E4], AccurateRip returned [57A60BC7] (AR v2)
Track 3 cannot be verified as accurate (confidence 20) [AA593554], AccurateRip returned [056099F1] (AR v2)
Track 4 cannot be verified as accurate (confidence 20) [324462A1], AccurateRip returned [EB94EA51] (AR v2)
Track 5 cannot be verified as accurate (confidence 20) [FE8ACDBF], AccurateRip returned [DB7D44BE] (AR v2)
Track 6 cannot be verified as accurate (confidence 20) [D7E4BC7E], AccurateRip returned [0CCB3C0F] (AR v2)
Track 7 cannot be verified as accurate (confidence 20) [D2CF3E73], AccurateRip returned [D652905F] (AR v2)
Track 8 cannot be verified as accurate (confidence 20) [4DBB6C0C], AccurateRip returned [1CE69B69] (AR v2)
Track 9 cannot be verified as accurate (confidence 20) [A0C2A4E5], AccurateRip returned [86B2BC11] (AR v2)
Track 10 cannot be verified as accurate (confidence 20) [FEDCF04E], AccurateRip returned [CA0F079F] (AR v2)
Track 11 cannot be verified as accurate (confidence 20) [8F28875E], AccurateRip returned [76820F66] (AR v2)
Track 12 cannot be verified as accurate (confidence 20) [1CFFEDAA], AccurateRip returned [A2115A1B] (AR v2)

No tracks could be verified as accurate
You may have a different pressing from the one(s) in the database

End of status report

==== Log checksum 51A053781440D2E86C6FDD0256B9D59C629D227182E320C4C6C827F147218056 ====

[CUETools log; Date: 23.05.2021 0:08:18; Version: 2.1.6]
[CTDB TOCID: wt3k4HXaH7AvyZgmKWsvebMp_4U-] found.
Track | CTDB Status
1 | (26/26) Accurately ripped
2 | (26/26) Accurately ripped
3 | (26/26) Accurately ripped
4 | (26/26) Accurately ripped
5 | (26/26) Accurately ripped
6 | (26/26) Accurately ripped
7 | (26/26) Accurately ripped
8 | (26/26) Accurately ripped
9 | (26/26) Accurately ripped
10 | (26/26) Accurately ripped
11 | (26/26) Accurately ripped
12 | (26/26) Accurately ripped
[AccurateRip ID: 001459d8-00be9faa-bd0ab00c] found.
Track [ CRC | V2 ] Status
01 [9168b8af|ba327465] (00+00/37) No match
02 [eae35491|78a008e4] (00+00/37) No match
03 [7b7f811d|aa593554] (00+00/38) No match
04 [58913663|324462a1] (00+00/38) No match
05 [272ab25d|fe8acdbf] (00+00/38) No match
06 [091cea97|d7e4bc7e] (00+00/38) No match
07 [05087a22|d2cf3e73] (00+00/38) No match
08 [a1df5687|4dbb6c0c] (00+00/38) No match
09 [13622ca4|a0c2a4e5] (00+00/38) No match
10 [a3110004|fedcf04e] (00+00/38) No match
11 [36809dd7|8f28875e] (00+00/38) No match
12 [4f61664d|1cffedaa] (00+00/38) No match
Offsetted by 664:
01 [b8653595] (14/37) Accurately ripped
02 [6dcf73a9] (14/37) Accurately ripped
03 [cab51ddd] (14/38) Accurately ripped
04 [d99e5c23] (14/38) Accurately ripped
05 [cf9998f5] (14/38) Accurately ripped
06 [f37a8b2f] (14/38) Accurately ripped
07 [c25a47b2] (14/38) Accurately ripped
08 [112614e7] (14/38) Accurately ripped
09 [99ad763c] (14/38) Accurately ripped
10 [bd8d667c] (14/38) Accurately ripped
11 [d6c5b93f] (14/38) Accurately ripped
12 [f4369418] (14/38) Accurately ripped

Track Peak [ CRC32 ] [W/O NULL] [ LOG ]
– 98,8 [547B9BD2] [0D3141CA] CRC32
01 98,8 [0D03A5E9] [CC625C7D]
02 98,8 [08DF9BD2] [2171D02F]
03 97,0 [A514D251] [B0E93BED]
04 98,8 [A92E244E] [5137D1E1]
05 98,8 [5290A635] [F476CE9E]
06 98,8 [8D7CA791] [623455DC]
07 98,8 [AB2085CA] [A4B2E6F4]
08 98,8 [46BC8F2C] [6B726CC6]
09 98,8 [1E814ADA] [38B5643B]
10 97,7 [5F6897C9] [B67E8611]
11 98,8 [268142B7] [4F586735]
12 98,8 [83501FA6] [F9251C56]

Maria Muldaur - Naughty, Bawdy & Blue (2007)


All thanks go to Juergen

>>> Maria Muldaur in my Blog <<<

DOWNLOAD: