Tags
Language
Tags

Mariah Carey - Mariah Carey (1990)

Posted By: popsakov
Mariah Carey - Mariah Carey (1990)

Mariah Carey - Mariah Carey (1990)
EAC Rip | FLAC (Img) + Cue + Log ~ 363 Mb | MP3 CBR320 ~ 153 Mb
Full Scans | 00:46:42 | RAR 5% Recovery
Columbia #466815 2 / COL 466815 2 / 01-466815-10
R&B / Soul / Pop / Dance

This extremely impressive debut is replete with smooth-sounding ballads and uplifting dance/R&B cuts. Carey convincingly seizes many opportunities to display her incredible vocal range on such memorable tracks as the popular "Vision of Love" (featured during her television debut on The Arsenio Hall Show, an appearance noted by many as her formal introduction to stardom), the energetic "Someday," and the moody sounds of the hidden treasure "Vanishing." With this collection of songs acting as a springboard for future successes, Carey establishes a strong standard of comparison for other breakthrough artists of this genre.

~ Ashley S. Battel, All Music

***************

Mariah Carey - Mariah Carey (1990)

Mariah Carey - Mariah Carey (1990)

Track List:

01. Vision Of Love [0:03:30.35]
02. There's Got To Be A Way [0:04:53.42]
03. I Don't Wanna Cry [0:04:48.73]
04. Someday [0:04:08.02]
05. Vanishing [0:04:12.23]
06. All In Your Mind [0:04:45.62]
07. Alone In Love [0:04:12.13]
08. You Need Me [0:03:52.05]
09. Sent From Up Above [0:04:04.70]
10. Prisoner [0:04:24.15]
11. Love Takes Time [0:03:49.60]

Exact Audio Copy V1.0 beta 3 from 29. August 2011

EAC extraction logfile from 17. September 2015, 19:52

Mariah Carey / Mariah Carey

Used drive : ATAPI iHAS124 D Adapter: 0 ID: 2

Read mode : Secure
Utilize accurate stream : Yes
Defeat audio cache : Yes
Make use of C2 pointers : No

Read offset correction : 6
Overread into Lead-In and Lead-Out : No
Fill up missing offset samples with silence : Yes
Delete leading and trailing silent blocks : No
Null samples used in CRC calculations : Yes
Used interface : Installed external ASPI interface

Used output format : User Defined Encoder
Selected bitrate : 1024 kBit/s
Quality : High
Add ID3 tag : No
Command line compressor : C:\Program Files (x86)\Exact Audio Copy\Flac\flac.exe
Additional command line options : -6 -V -T "ARTIST=%artist%" -T "TITLE=%title%" -T "ALBUM=%albumtitle%" -T "DATE=%year%" -T "TRACKNUMBER=%tracknr%" -T "GENRE=%genre%" -T "COMMENT=%comment%" -T "BAND=%albuminterpret%" -T "COMPOSER=%composer%" %haslyrics%–tag-from-file=LYRICS="%lyricsfile%"%haslyrics% -T "DISCNUMBER=%cdnumber%" -T "TOTALDISCS=%totalcds%" -T "TOTALTRACKS=%numtracks%" %hascover%–picture="%coverfile%"%hascover% %source% -o %dest%


TOC of the extracted CD

Track | Start | Length | Start sector | End sector
––––––––––––––––––––––––––––-
1 | 0:00.00 | 3:30.35 | 0 | 15784
2 | 3:30.35 | 4:53.42 | 15785 | 37801
3 | 8:24.02 | 4:48.73 | 37802 | 59474
4 | 13:13.00 | 4:08.02 | 59475 | 78076
5 | 17:21.02 | 4:12.23 | 78077 | 96999
6 | 21:33.25 | 4:45.62 | 97000 | 118436
7 | 26:19.12 | 4:12.13 | 118437 | 137349
8 | 30:31.25 | 3:52.05 | 137350 | 154754
9 | 34:23.30 | 4:04.70 | 154755 | 173124
10 | 38:28.25 | 4:24.15 | 173125 | 192939
11 | 42:52.40 | 3:49.60 | 192940 | 210174


Range status and errors

Selected range

Filename C:\mm\Mariah Carey\1990 - Mariah Carey [466815 2]\Mariah Carey - Mariah Carey.wav

Peak level 100.0 %
Extraction speed 3.1 X
Range quality 100.0 %
Test CRC E3DEA088
Copy CRC E3DEA088
Copy OK

No errors occurred


AccurateRip summary

Track 1 accurately ripped (confidence 33) [34DDD3B3] (AR v2)
Track 2 accurately ripped (confidence 33) [349F8BAB] (AR v2)
Track 3 accurately ripped (confidence 33) [A6987CA1] (AR v2)
Track 4 accurately ripped (confidence 32) [2A879109] (AR v2)
Track 5 accurately ripped (confidence 33) [F8EB7DB9] (AR v2)
Track 6 accurately ripped (confidence 33) [AE8C7019] (AR v2)
Track 7 accurately ripped (confidence 33) [E17EA03C] (AR v2)
Track 8 accurately ripped (confidence 33) [870661DF] (AR v2)
Track 9 accurately ripped (confidence 33) [270BEE87] (AR v2)
Track 10 accurately ripped (confidence 32) [A43F2773] (AR v2)
Track 11 accurately ripped (confidence 33) [C308D122] (AR v2)

All tracks accurately ripped

End of status report

[CUETools log; Date: 11.05.2017 18:58:20; Version: 2.1.5]
[CTDB TOCID: SUfzIuVclu_Q84mi.ZLj78tkRHY-] found.
Track | CTDB Status
1 | (511/511) Accurately ripped
2 | (510/511) Accurately ripped
3 | (510/511) Accurately ripped
4 | (509/511) Accurately ripped
5 | (509/511) Accurately ripped
6 | (509/511) Accurately ripped
7 | (508/511) Accurately ripped
8 | (510/511) Accurately ripped
9 | (507/511) Accurately ripped
10 | (510/511) Accurately ripped
11 | (509/511) Accurately ripped
[AccurateRip ID: 00137429-00a8a256-830af20b] found.
Track [ CRC | V2 ] Status
01 [54e30277|34ddd3b3] (051+046/519) Accurately ripped
02 [0211fa13|349f8bab] (051+046/520) Accurately ripped
03 [25cb661a|a6987ca1] (051+046/520) Accurately ripped
04 [897877df|2a879109] (050+045/517) Accurately ripped
05 [9d1fa1b4|f8eb7db9] (050+046/519) Accurately ripped
06 [297245c0|ae8c7019] (050+045/517) Accurately ripped
07 [30ba5c9f|e17ea03c] (048+046/515) Accurately ripped
08 [37148990|870661df] (050+046/512) Accurately ripped
09 [692bd69e|270bee87] (051+046/516) Accurately ripped
10 [2f809c34|a43f2773] (050+045/511) Accurately ripped
11 [e96c5df0|c308d122] (050+046/516) Accurately ripped
Offsetted by -1499:
01 [91596267] (011/519) Accurately ripped
02 [a9ef7c2b] (011/520) Accurately ripped
03 [c8a4914d] (012/520) Accurately ripped
04 [45f8f56d] (011/517) Accurately ripped
05 [ec8c61e6] (011/519) Accurately ripped
06 [f231a272] (011/517) Accurately ripped
07 [dc6bd05d] (011/515) Accurately ripped
08 [8c4bc3fb] (011/512) Accurately ripped
09 [94671d73] (012/516) Accurately ripped
10 [a2196016] (011/511) Accurately ripped
11 [028be970] (012/516) Accurately ripped
Offsetted by -1470:
01 [e640b8d7] (002/519) Accurately ripped
02 [9fce3c83] (002/520) Accurately ripped
03 [77a5bfc3] (002/520) Accurately ripped
04 [94cab978] (002/517) Accurately ripped
05 [19ce3fc8] (002/519) Accurately ripped
06 [8a9308d4] (002/517) Accurately ripped
07 [e45efceb] (002/515) Accurately ripped
08 [c29eda7f] (002/512) Accurately ripped
09 [8a359692] (002/516) Accurately ripped
10 [ab75b995] (002/511) Accurately ripped
11 [b9a648f0] (002/516) Accurately ripped
Offsetted by -1441:
01 [3b280f47] (177/519) Accurately ripped
02 [95acfcdb] (175/520) Accurately ripped
03 [2072cc6f] (175/520) Accurately ripped
04 [2caf7afd] (175/517) Accurately ripped
05 [47101daa] (177/519) Accurately ripped
06 [22f46f36] (175/517) Accurately ripped
07 [ec522979] (175/515) Accurately ripped
08 [d5c7418e] (172/512) Accurately ripped
09 [37afb382] (173/516) Accurately ripped
10 [bcaf1420] (172/511) Accurately ripped
11 [70c0a870] (174/516) Accurately ripped
Offsetted by 127:
01 [067fd547] (003/519) Accurately ripped
02 [854493db] (003/520) Accurately ripped
03 [de75b970] (003/520) Accurately ripped
04 [3756cc78] (003/517) Accurately ripped
05 [7dcd52ea] (003/519) Accurately ripped
06 [aa48f476] (003/517) Accurately ripped
07 [c64d3a39] (003/515) Accurately ripped
08 [25f4c353] (003/512) Accurately ripped
09 [b7eb1576] (003/516) Accurately ripped
10 [27d82373] (003/511) Accurately ripped
11 [e7fa5870] (003/516) Accurately ripped
Offsetted by 986:
01 [9b9c7d57] (005/519) Accurately ripped
02 [a1f385c3] (005/520) Accurately ripped
03 [668ef494] (005/520) Accurately ripped
04 [be8fc9bf] (005/517) Accurately ripped
05 [9fdf19b8] (005/519) Accurately ripped
06 [6661dec4] (005/517) Accurately ripped
07 [3f06477b] (005/515) Accurately ripped
08 [0ca77114] (004/512) Accurately ripped
09 [eeced3a5] (005/516) Accurately ripped
10 [89ec6fb1] (005/511) Accurately ripped
11 [3aed0cf0] (005/516) Accurately ripped

Track Peak [ CRC32 ] [W/O NULL] [ LOG ]
– 100,0 [E3DEA088] [3B81F618] CRC32
01 97,1 [94DAF1A9] [0581D931]
02 100,0 [64528588] [8B8B0D19]
03 100,0 [CAC5FC7E] [BBE1A384]
04 97,7 [E7B1E9DA] [9F8C44BD]
05 67,0 [9CFE94C3] [1856F99C]
06 97,7 [91419BEB] [A0FC3C5D]
07 86,6 [5BD5C080] [74E49105]
08 99,7 [D8F61BB3] [90B1DACE]
09 96,3 [30343D60] [02DF3FAA]
10 93,7 [47892F6E] [C3E6063E]
11 99,8 [15F8867C] [10D9A162]

Mariah Carey - Mariah Carey (1990)


All thanks go to sergych

>>> Mariah Carey in my Blog <<<

DOWNLOAD: