Subcategories

Mariah Carey - Merry Christmas (1994) {Japanese Edition}

Posted By: popsakov
Mariah Carey - Merry Christmas (1994) {Japanese Edition}

Mariah Carey - Merry Christmas (1994) {Japanese Edition}
EAC Rip | FLAC (Img) + Cue + Log ~ 275 Mb | MP3 CBR320 ~ 95 Mb
Scans (JPG, 600 dpi) ~ 60 Mb | RAR 5% Recovery
R&B, Pop, Christmas | Sony Records #SRCS 7492

Merry Christmas is the first Christmas album, and the fourth studio album, by American singer and songwriter Mariah Carey. Released by Columbia Records on November 1, 1994, the album features cover versions of popular Christmas tunes and original material. Merry Christmas has sold 15 million copies worldwide and is the best-selling Christmas album of all time.
Mariah Carey - Merry Christmas (1994) {Japanese Edition}


***************

Mariah Carey - Merry Christmas (1994) {Japanese Edition}

Mariah Carey - Merry Christmas (1994) {Japanese Edition}

Track List:

01. Silent Night [0:03:41.27]
02. All I Want For Christmas Is You [0:04:01.30]
03. O Holy Night [0:04:27.25]
04. Christmas (Baby Please Come Home) [0:02:36.05]
05. Miss You Most (At Christmas Time) [0:04:33.30]
06. Joy To The World [0:04:20.00]
07. Jesus Born On This Day [0:03:43.00]
08. Santa Claus Is Comin' To Town [0:03:24.28]
09. Hark! The Herald Angels Sing / Gloria (In Excelsis Deo) [0:03:01.07]
10. Jesus Oh What A Wonderful Child [0:04:29.03]
11. God Rest Ye Merry, Gentlemen [0:01:19.57]

Exact Audio Copy V1.1 from 23. June 2015

EAC extraction logfile from 14. November 2015, 12:32

Mariah Carey / Merry Christmas

Used drive : ATAPI iHAS124 D Adapter: 0 ID: 2

Read mode : Secure
Utilize accurate stream : Yes
Defeat audio cache : Yes
Make use of C2 pointers : No

Read offset correction : 6
Overread into Lead-In and Lead-Out : No
Fill up missing offset samples with silence : Yes
Delete leading and trailing silent blocks : No
Null samples used in CRC calculations : Yes
Used interface : Installed external ASPI interface

Used output format : User Defined Encoder
Selected bitrate : 1024 kBit/s
Quality : High
Add ID3 tag : Yes
Command line compressor : C:\Program Files (x86)\Exact Audio Copy\Flac\flac.exe
Additional command line options : -6 -V -T "ARTIST=%artist%" -T "TITLE=%title%" -T "ALBUM=%albumtitle%" -T "DATE=%year%" -T "TRACKNUMBER=%tracknr%" -T "GENRE=%genre%" -T "COMMENT=%comment%" -T "BAND=%albuminterpret%" -T "COMPOSER=%composer%" %haslyrics%–tag-from-file=LYRICS="%lyricsfile%"%haslyrics% -T "DISCNUMBER=%cdnumber%" -T "TOTALDISCS=%totalcds%" -T "TOTALTRACKS=%numtracks%" %hascover%–picture="%coverfile%"%hascover% %source% -o %dest%


TOC of the extracted CD

Track | Start | Length | Start sector | End sector
––––––––––––––––––––––––––––-
1 | 0:00.00 | 3:41.27 | 0 | 16601
2 | 3:41.27 | 4:01.30 | 16602 | 34706
3 | 7:42.57 | 4:27.25 | 34707 | 54756
4 | 12:10.07 | 2:36.05 | 54757 | 66461
5 | 14:46.12 | 4:33.30 | 66462 | 86966
6 | 19:19.42 | 4:20.00 | 86967 | 106466
7 | 23:39.42 | 3:43.00 | 106467 | 123191
8 | 27:22.42 | 3:24.28 | 123192 | 138519
9 | 30:46.70 | 3:01.07 | 138520 | 152101
10 | 33:48.02 | 4:29.03 | 152102 | 172279
11 | 38:17.05 | 1:19.57 | 172280 | 178261


Range status and errors

Selected range

Filename C:\mm\Mariah Carey\1994 - Merry Christmas [SRCS 7492]\Mariah Carey - Merry Christmas.wav

Peak level 99.1 %
Extraction speed 7.9 X
Range quality 99.9 %
Test CRC A0D8CDDD
Copy CRC A0D8CDDD
Copy OK

No errors occurred


AccurateRip summary

Track 1 accurately ripped (confidence 14) [4273F295] (AR v2)
Track 2 accurately ripped (confidence 14) [85DCA39E] (AR v2)
Track 3 accurately ripped (confidence 14) [16933ECE] (AR v2)
Track 4 accurately ripped (confidence 14) [7A7BD6EC] (AR v2)
Track 5 accurately ripped (confidence 13) [14ED0020] (AR v2)
Track 6 accurately ripped (confidence 14) [297AF09C] (AR v2)
Track 7 accurately ripped (confidence 14) [BF96A6BB] (AR v2)
Track 8 accurately ripped (confidence 14) [B7F8CA85] (AR v2)
Track 9 accurately ripped (confidence 14) [C4FCE1D2] (AR v2)
Track 10 accurately ripped (confidence 14) [FF3C0E1D] (AR v2)
Track 11 accurately ripped (confidence 14) [7AF5A726] (AR v2)

All tracks accurately ripped

End of status report

foobar2000 1.2.6 / Dynamic Range Meter 1.1.1
log date: 2017-05-20 01:16:47

––––––––––––––––––––––––––––––––––––––––
Analyzed: Mariah Carey / Merry Christmas
––––––––––––––––––––––––––––––––––––––––

DR Peak RMS Duration Track
––––––––––––––––––––––––––––––––––––––––
DR10 -0.20 dB -12.81 dB 3:41 01-Silent Night
DR9 -0.16 dB -10.94 dB 4:01 02-All I Want For Christmas Is You
DR8 -0.20 dB -10.69 dB 4:27 03-O Holy Night
DR10 -0.20 dB -11.76 dB 2:36 04-Christmas (Baby Please Come Home)
DR11 -0.20 dB -16.07 dB 4:33 05-Miss You Most (At Christmas Time)
DR10 -0.20 dB -11.84 dB 4:20 06-Joy To The World
DR10 -0.19 dB -13.34 dB 3:43 07-Jesus Born On This Day
DR8 -0.20 dB -11.13 dB 3:24 08-Santa Claus Is Comin' To Town
DR9 -0.20 dB -13.14 dB 3:01 09-Hark! The Herald Angels Sing / Gloria (In Excelsis Deo)
DR10 -0.08 dB -12.23 dB 4:29 10-Jesus Oh What A Wonderful Child
DR12 -0.20 dB -15.94 dB 1:20 11-God Rest Ye Merry, Gentlemen
––––––––––––––––––––––––––––––––––––––––

Number of tracks: 11
Official DR value: DR10

Samplerate: 44100 Hz
Channels: 2
Bits per sample: 16
Bitrate: 927 kbps
Codec: FLAC
================================================================================

[CUETools log; Date: 20.05.2017 1:14:57; Version: 2.1.5]
[CTDB TOCID: DQosIM3Va9TPV8rPpDktevDVLW4-] found.
Track | CTDB Status
1 | (183/184) Accurately ripped
2 | (184/184) Accurately ripped
3 | (182/184) Accurately ripped
4 | (181/184) Accurately ripped
5 | (182/184) Accurately ripped
6 | (179/184) Accurately ripped
7 | (180/184) Accurately ripped
8 | (182/184) Accurately ripped
9 | (184/184) Accurately ripped
10 | (183/184) Accurately ripped
11 | (184/184) Accurately ripped
[AccurateRip ID: 00113f4e-0094ab5b-8b09480b] found.
Track [ CRC | V2 ] Status
01 [bcb3f645|4273f295] (15+23/83) Accurately ripped
02 [275e3ff5|85dca39e] (15+23/83) Accurately ripped
03 [d8cc1e9c|16933ece] (15+23/82) Accurately ripped
04 [39547c80|7a7bd6ec] (15+23/83) Accurately ripped
05 [079b6266|14ed0020] (15+22/82) Accurately ripped
06 [321857aa|297af09c] (15+23/83) Accurately ripped
07 [3e175e84|bf96a6bb] (15+23/83) Accurately ripped
08 [19707b82|b7f8ca85] (15+23/83) Accurately ripped
09 [13a586d8|c4fce1d2] (15+23/83) Accurately ripped
10 [fcae2718|ff3c0e1d] (15+23/83) Accurately ripped
11 [54fca9bc|7af5a726] (15+23/83) Accurately ripped
Offsetted by -648:
01 [0a7789db] (04/83) Accurately ripped
02 [3281c973] (04/83) Accurately ripped
03 [5ed3405c] (04/82) Accurately ripped
04 [96c44bdf] (04/83) Accurately ripped
05 [086f12af] (04/82) Accurately ripped
06 [90c35204] (04/83) Accurately ripped
07 [a557ba7b] (04/83) Accurately ripped
08 [fab04ac6] (04/83) Accurately ripped
09 [39ce6c11] (04/83) Accurately ripped
10 [6df0ac76] (04/83) Accurately ripped
11 [3799df6c] (04/83) Accurately ripped
Offsetted by 201:
01 [16176699] (09/83) Accurately ripped
02 [f162af14] (09/83) Accurately ripped
03 [9daf3ce6] (09/82) Accurately ripped
04 [d2ce5c28] (09/83) Accurately ripped
05 [ce8748f0] (09/82) Accurately ripped
06 [ca08b676] (09/83) Accurately ripped
07 [1caaf09b] (09/83) Accurately ripped
08 [d0cfe4a6] (09/83) Accurately ripped
09 [27cb895d] (09/83) Accurately ripped
10 [ff2e443f] (09/83) Accurately ripped
11 [7ceab6b6] (09/83) Accurately ripped
Offsetted by 300:
01 [990c0bd4] (03/83) Accurately ripped
02 [67eef63e] (03/83) Accurately ripped
03 [2d1083b7] (03/82) Accurately ripped
04 [7f7f683a] (03/83) Accurately ripped
05 [5aa53d52] (03/82) Accurately ripped
06 [88edacb7] (03/83) Accurately ripped
07 [118c0b84] (03/83) Accurately ripped
08 [045d1814] (03/83) Accurately ripped
09 [5e42701a] (03/83) Accurately ripped
10 [ba1be90e] (03/83) Accurately ripped
11 [4fa0eaf4] (03/83) Accurately ripped
Offsetted by 309:
01 [dc36c15b] (02/83) Accurately ripped
02 [cd217dd2] (02/83) Accurately ripped
03 [6f2c5878] (02/82) Accurately ripped
04 [ef6c93a7] (02/83) Accurately ripped
05 [ce8e60b3] (02/82) Accurately ripped
06 [2515721e] (02/83) Accurately ripped
07 [c5747f8b] (02/83) Accurately ripped
08 [7bceace0] (02/83) Accurately ripped
09 [e44259cb] (02/83) Accurately ripped
10 [5622566f] (02/83) Accurately ripped
11 [d725d86e] (02/83) Accurately ripped

Track Peak [ CRC32 ] [W/O NULL] [ LOG ]
– 99,1 [A0D8CDDD] [F0CB3056] CRC32
01 97,7 [BA2396F8] [35F305F6]
02 98,1 [706791EC] [2BC7889B]
03 97,7 [8AC4971E] [57F76683]
04 97,7 [504CA519] [67FDEC30]
05 97,7 [21550E3C] [88D343E2]
06 97,7 [72A2EEFE] [F4EFA305]
07 97,8 [FD596D4A] [A3417F9A]
08 97,7 [3B7CC6F3] [F6319A9D]
09 97,7 [A61D8F37] [2AD2E45A]
10 99,1 [6D855D3C] [C8F2B707]
11 97,7 [0B3DD867] [15D48377]

Mariah Carey - Merry Christmas (1994) {Japanese Edition}

All thanks go to sergych

>>> Mariah Carey in my Blog <<<

Download from icerbox.com: