Subcategories

Marianne Faithfull - Perfect Stranger: The Island Anthology (1998)

Posted By: v3122
Marianne Faithfull - Perfect Stranger: The Island Anthology (1998)

Marianne Faithfull - Perfect Stranger: The Island Anthology (1998)
EAC | Flac(Image) + Cue + Log & MP3 CBR 320Kbps
2CD | Island, 524 579-2 | ~ 979 or 364 Mb | Scans(jpg) -> 42 Mb
Folk Rock / Alternative Rock / Pop Rock

Because more than half of the 35 songs on this two-disc retrospective of Marianne Faithfull's 1979-95 output come from her three great albums – Broken English, Dangerous Acquaintances, and Strange Weather – or are previously unreleased outtakes or B-sides from them, A Perfect Stranger: The Island Anthology makes a fine primer to Faithfull's often challenging, always mesmerizing (or would that be always challenging, often mesmerizing?) music. "Ballad of the Soldier's Wife," her solid contribution to 1985's Lost in the Stars: The Music of Kurt Weill, is also included, giving Faithfull's hauntingly tragic voice the resonance and attention it demands. Weill and Faithfull seem made for each other, as the bulk of the second disc (comprised of songs from her 1990 live album and the underachieving A Secret Life, as well as the career-capping Strange Weather) makes clear. But there's also a strain to some of these tracks, as if Faithfull's aesthetic wandering eventually will bring her to that elusive cabaret of her dreams. On her best recordings, it indeed sounds like she's home.

by Michael Gallucci, AMG
Marianne Faithfull - Perfect Stranger: The Island Anthology (1998)


Marianne Faithfull - Perfect Stranger: The Island Anthology (1998):

Marianne Faithfull - Perfect Stranger: The Island Anthology (1998)

Tracklist CD1:

01. Broken English (04:34)
02. Witches' Song (04:43)
03. Guilt (05:08)
04. The Ballad Of Lucy Jordan (04:09)
05. Working Class Hero (04:40)
06. Why D'Ya Do It? (06:41)
07. Sister Morphine (06:04)
08. Sweetheart (03:15)
09. Intrigue (04:29)
10. For Beauty's Sake (03:30)
11. So Sad (04:31)
12. Truth, Bitter Truth (07:20)
13. The Blue Millionaire (12") (08:23)
14. Falling From Grace (03:53)
15. Running For Our Lives (04:43)

Converted to Image (CUETools 2.1.4)

Exact Audio Copy V1.0 beta 3 from 29. August 2011

EAC extraction logfile from 14. February 2013, 5:29

Marianne Faithfull / Perfect Stranger - The Island Anthology CD1

Used drive : PLEXTOR CD-R PREMIUM2 Adapter: 4 ID: 0

Read mode : Secure
Utilize accurate stream : Yes
Defeat audio cache : Yes
Make use of C2 pointers : No

Read offset correction : 30
Overread into Lead-In and Lead-Out : Yes
Fill up missing offset samples with silence : Yes
Delete leading and trailing silent blocks : No
Null samples used in CRC calculations : Yes
Used interface : Native Win32 interface for Win NT & 2000
Gap handling : Appended to previous track

Used output format : User Defined Encoder
Selected bitrate : 1024 kBit/s
Quality : High
Add ID3 tag : No
Command line compressor : C:\Program Files (x86)\Exact Audio Copy\Flac\flac.exe
Additional command line options : -8 -V -T "ARTIST=%artist%" -T "TITLE=%title%" -T "ALBUM=%albumtitle%" -T "DATE=%year%" -T "TRACKNUMBER=%tracknr%" -T "TOTALTRACKS=%numtracks%" -T "GENRE=%genre%" -T "ALBUMARTIST=%albumartist%" -T "ALBUM ARTIST=%albumartist%" -T "COMMENT=EAC Secure Mode, Test & Copy, AccurateRip, FLAC -8" %source%


TOC of the extracted CD

Track | Start | Length | Start sector | End sector
––––––––––––––––––––––––––––-
1 | 0:00.00 | 4:36.60 | 0 | 20759
2 | 4:36.60 | 4:44.25 | 20760 | 42084
3 | 9:21.10 | 5:10.10 | 42085 | 65344
4 | 14:31.20 | 4:10.45 | 65345 | 84139
5 | 18:41.65 | 4:42.12 | 84140 | 105301
6 | 23:24.02 | 6:43.38 | 105302 | 135564
7 | 30:07.40 | 6:07.12 | 135565 | 163101
8 | 36:14.52 | 3:17.45 | 163102 | 177921
9 | 39:32.22 | 4:32.00 | 177922 | 198321
10 | 44:04.22 | 3:32.33 | 198322 | 214254
11 | 47:36.55 | 4:31.25 | 214255 | 234604
12 | 52:08.05 | 7:22.65 | 234605 | 267819
13 | 59:30.70 | 8:23.67 | 267820 | 305611
14 | 67:54.62 | 3:54.10 | 305612 | 323171
15 | 71:48.72 | 4:44.00 | 323172 | 344471


Track 1

Filename F:\Music\01 - Broken English.wav

Pre-gap length 0:00:02.00

Peak level 100.0 %
Extraction speed 1.9 X
Track quality 100.0 %
Test CRC A62E6CD9
Copy CRC A62E6CD9
Accurately ripped (confidence 3) [EDCD6811] (AR v2)
Copy OK

Track 2

Filename F:\Music\02 - Witches' Song.wav

Pre-gap length 0:00:01.45

Peak level 100.0 %
Extraction speed 1.9 X
Track quality 100.0 %
Test CRC E258511D
Copy CRC E258511D
Accurately ripped (confidence 3) [826399C4] (AR v2)
Copy OK

Track 3

Filename F:\Music\03 - Guilt.wav

Peak level 100.0 %
Extraction speed 1.9 X
Track quality 100.0 %
Test CRC 3550D0BD
Copy CRC 3550D0BD
Accurately ripped (confidence 3) [A1CF65BB] (AR v2)
Copy OK

Track 4

Filename F:\Music\04 - The Ballad Of Lucy Jordan.wav

Pre-gap length 0:00:01.40

Peak level 100.0 %
Extraction speed 1.9 X
Track quality 100.0 %
Test CRC EDE30197
Copy CRC EDE30197
Accurately ripped (confidence 3) [6538F78D] (AR v2)
Copy OK

Track 5

Filename F:\Music\05 - Working Class Hero.wav

Peak level 100.0 %
Extraction speed 1.8 X
Track quality 99.9 %
Test CRC 84E7B5D6
Copy CRC 84E7B5D6
Accurately ripped (confidence 3) [74B72411] (AR v2)
Copy OK

Track 6

Filename F:\Music\06 - Why D' Ya Do It.wav

Pre-gap length 0:00:01.45

Peak level 100.0 %
Extraction speed 1.9 X
Track quality 100.0 %
Test CRC 44EE7F45
Copy CRC 44EE7F45
Accurately ripped (confidence 3) [FB0497D1] (AR v2)
Copy OK

Track 7

Filename F:\Music\07 - Sister Morphine.wav

Pre-gap length 0:00:01.48

Peak level 100.0 %
Extraction speed 1.8 X
Track quality 99.9 %
Test CRC 9307AE1D
Copy CRC 9307AE1D
Accurately ripped (confidence 3) [743DDEBA] (AR v2)
Copy OK

Track 8

Filename F:\Music\08 - Sweetheart.wav

Pre-gap length 0:00:02.15

Peak level 100.0 %
Extraction speed 1.8 X
Track quality 100.0 %
Test CRC F4DF67F9
Copy CRC F4DF67F9
Accurately ripped (confidence 3) [9B1BB3F4] (AR v2)
Copy OK

Track 9

Filename F:\Music\09 - Intrigue.wav

Pre-gap length 0:00:01.50

Peak level 100.0 %
Extraction speed 1.8 X
Track quality 100.0 %
Test CRC 22EA51AE
Copy CRC 22EA51AE
Accurately ripped (confidence 3) [60EFA047] (AR v2)
Copy OK

Track 10

Filename F:\Music\10 - For Beauty's Sake.wav

Pre-gap length 0:00:01.45

Peak level 100.0 %
Extraction speed 1.8 X
Track quality 100.0 %
Test CRC F5D70087
Copy CRC F5D70087
Accurately ripped (confidence 3) [55832740] (AR v2)
Copy OK

Track 11

Filename F:\Music\11 - So Sad.wav

Pre-gap length 0:00:01.25

Peak level 100.0 %
Extraction speed 1.9 X
Track quality 100.0 %
Test CRC F03EF959
Copy CRC F03EF959
Accurately ripped (confidence 3) [68847D29] (AR v2)
Copy OK

Track 12

Filename F:\Music\12 - Truth, Bitter Truth.wav

Peak level 100.0 %
Extraction speed 1.8 X
Track quality 99.9 %
Test CRC 14D95D07
Copy CRC 14D95D07
Accurately ripped (confidence 3) [AB879025] (AR v2)
Copy OK

Track 13

Filename F:\Music\13 - The Blue Millionaire.wav

Pre-gap length 0:00:01.55

Peak level 67.0 %
Extraction speed 1.9 X
Track quality 100.0 %
Test CRC AF3C890D
Copy CRC AF3C890D
Accurately ripped (confidence 3) [716E76C9] (AR v2)
Copy OK

Track 14

Filename F:\Music\14 - Falling From Grace.wav

Peak level 100.0 %
Extraction speed 1.9 X
Track quality 100.0 %
Test CRC B8B50149
Copy CRC B8B50149
Accurately ripped (confidence 3) [06B674EB] (AR v2)
Copy OK

Track 15

Filename F:\Music\15 - Running For Our Lives.wav

Peak level 100.0 %
Extraction speed 1.9 X
Track quality 100.0 %
Test CRC 8939ED07
Copy CRC 8939ED07
Accurately ripped (confidence 3) [08891A48] (AR v2)
Copy OK


All tracks accurately ripped

No errors occurred

End of status report

==== Log checksum E6D47F62D80C27D283332E4684196E157D40F2204BEB0EB7ACC8CAB403984A41 ====

foobar2000 1.2.9 / Dynamic Range Meter 1.1.1
log date: 2016-06-25 13:28:30

––––––––––––––––––––––––––––––––––––––––
Analyzed: Marianne Faithfull / Perfect Stranger - The Island Anthology CD1
––––––––––––––––––––––––––––––––––––––––

DR Peak RMS Duration Track
––––––––––––––––––––––––––––––––––––––––
DR9 0.00 dB -10.39 dB 4:37 01-Broken English
DR11 0.00 dB -13.34 dB 4:44 02-Witches' Song
DR12 0.00 dB -14.65 dB 5:10 03-Guilt
DR11 0.00 dB -12.96 dB 4:11 04-The Ballad Of Lucy Jordan
DR12 0.00 dB -14.11 dB 4:42 05-Working Class Hero
DR10 0.00 dB -12.58 dB 6:44 06-Why D' Ya Do It?
DR10 0.00 dB -13.48 dB 6:07 07-Sister Morphine
DR9 0.00 dB -10.30 dB 3:18 08-Sweetheart
DR11 0.00 dB -12.32 dB 4:32 09-Intrigue
DR9 0.00 dB -10.97 dB 3:32 10-For Beauty's Sake
DR9 0.00 dB -11.64 dB 4:31 11-So Sad
DR10 0.00 dB -12.82 dB 7:23 12-Truth, Bitter Truth
DR6 -3.48 dB -11.15 dB 8:24 13-The Blue Millionaire
DR12 0.00 dB -13.20 dB 3:54 14-Falling From Grace
DR11 0.00 dB -14.54 dB 4:44 15-Running For Our Lives
––––––––––––––––––––––––––––––––––––––––

Number of tracks: 15
Official DR value: DR10

Samplerate: 44100 Hz
Channels: 2
Bits per sample: 16
Bitrate: 915 kbps
Codec: FLAC

[CUETools log; Date: 25.06.2016 13:28:19; Version: 2.1.4]
[CTDB TOCID: caOoEMeWXTTQTL6ySQAi9Uu9YIk-] found.
Track | CTDB Status
1 | ( 99/100) Accurately ripped
2 | ( 98/100) Accurately ripped
3 | ( 98/100) Accurately ripped
4 | ( 98/100) Accurately ripped
5 | ( 99/100) Accurately ripped
6 | ( 99/100) Accurately ripped
7 | ( 97/100) Accurately ripped, or (2/100) differs in 12 samples @03:38:73
8 | ( 99/100) Accurately ripped
9 | (100/100) Accurately ripped
10 | ( 97/100) Accurately ripped, or (2/100) differs in 12 samples @03:07:03
11 | ( 99/100) Accurately ripped
12 | ( 99/100) Accurately ripped
13 | ( 94/100) Accurately ripped, or (2/100) differs in 36 samples @02:47:73,02:48:39,07:54:11
14 | ( 95/100) Accurately ripped, or (2/100) differs in 12 samples @00:06:62
15 | ( 94/100) Accurately ripped, or (2/100) differs in 12 samples @00:29:48
[AccurateRip ID: 0028ee6f-01d317b6-d111f00f] found.
Track [ CRC | V2 ] Status
01 [7ad0c1ed|edcd6811] (028+038/144) Accurately ripped
02 [6c96f815|826399c4] (028+039/146) Accurately ripped
03 [eb45291b|a1cf65bb] (027+038/143) Accurately ripped
04 [81a48e76|6538f78d] (028+039/146) Accurately ripped
05 [1f5d46cd|74b72411] (028+040/146) Accurately ripped
06 [a4ea6cb4|fb0497d1] (026+039/142) Accurately ripped
07 [6e16a229|743ddeba] (028+039/144) Accurately ripped
08 [922b8400|9b1bb3f4] (028+039/145) Accurately ripped
09 [80704b6d|60efa047] (029+039/146) Accurately ripped
10 [a80aed53|55832740] (028+039/145) Accurately ripped
11 [9ee77ea5|68847d29] (026+039/143) Accurately ripped
12 [3e6cd225|ab879025] (027+039/144) Accurately ripped
13 [8465015c|716e76c9] (026+038/142) Accurately ripped
14 [3e331956|06b674eb] (027+038/141) Accurately ripped
15 [a71a4887|08891a48] (027+038/140) Accurately ripped
Offsetted by -1051:
01 [43d39c0a] (005/144) Accurately ripped
02 [92497f3c] (005/146) Accurately ripped
03 [786c0541] (005/143) Accurately ripped
04 [7a429e70] (005/146) Accurately ripped
05 [58b2af56] (005/146) Accurately ripped
06 [b5ac9a03] (004/142) Accurately ripped
07 [6ace4af2] (005/144) Accurately ripped
08 [f1f58171] (005/145) Accurately ripped
09 [433b322a] (005/146) Accurately ripped
10 [3025c1bd] (005/145) Accurately ripped
11 [5fea1c69] (005/143) Accurately ripped
12 [fa8bb9fd] (005/144) Accurately ripped
13 [516e051b] (005/142) Accurately ripped
14 [f450cf8c] (005/141) Accurately ripped
15 [5c14602b] (005/140) Accurately ripped
Offsetted by -862:
01 [f54be93f] (010/144) Accurately ripped
02 [619cd92b] (010/146) Accurately ripped
03 [8e4af837] (010/143) Accurately ripped
04 [93b3b69a] (010/146) Accurately ripped
05 [95c18797] (009/146) Accurately ripped
06 [391d88da] (009/142) Accurately ripped
07 [f7b26173] (009/144) Accurately ripped
08 [2186675a] (009/145) Accurately ripped
09 [6b77a6ff] (009/146) Accurately ripped
10 [5ae63ad7] (009/145) Accurately ripped
11 [f6531c0d] (009/143) Accurately ripped
12 [23404315] (009/144) Accurately ripped
13 [ea0fd6e2] (009/142) Accurately ripped
14 [57190c12] (009/141) Accurately ripped
15 [62fe8aaf] (009/140) Accurately ripped
Offsetted by -112:
01 [3792f2fd] (002/144) Accurately ripped
02 [7ff3cc45] (002/146) Accurately ripped
03 [630ce4fb] (002/143) Accurately ripped
04 [1d3b9c96] (002/146) Accurately ripped
05 [2a96d99d] (002/146) Accurately ripped
06 [c8cd6d64] (002/142) Accurately ripped
07 [6fee48f9] (002/144) Accurately ripped
08 [a563df50] (002/145) Accurately ripped
09 [da5f6e7d] (002/146) Accurately ripped
10 [c798de73] (002/145) Accurately ripped
11 [165d6be5] (002/143) Accurately ripped
12 [7ba305a5] (002/144) Accurately ripped
13 [a534850c] (002/142) Accurately ripped
14 [03a97a36] (002/141) Accurately ripped
15 [a3014bc7] (002/140) Accurately ripped
Offsetted by 739:
01 [f67d2758] (011/144) Accurately ripped
02 [fcd4c006] (011/146) Accurately ripped
03 [d05cfce5] (011/143) Accurately ripped
04 [ccbd938c] (011/146) Accurately ripped
05 [854cd2ac] (011/146) Accurately ripped
06 [f8209cbd] (011/142) Accurately ripped
07 [6437b7c8] (010/144) Accurately ripped
08 [55a31737] (011/145) Accurately ripped
09 [939afd38] (011/146) Accurately ripped
10 [77d6ef79] (011/145) Accurately ripped
11 [2aad6381] (011/143) Accurately ripped
12 [63ae0c0d] (011/144) Accurately ripped
13 [b754ec75] (011/142) Accurately ripped
14 [52ba9590] (009/141) Accurately ripped
15 [546cde83] (008/140) Accurately ripped
Offsetted by -30:
01 [e8cdea7f] (000/144) No match (V2 was not tested)
02 [d1c6b0eb] (000/146) No match
03 [5da3cdb7] (000/143) No match
04 [3476291a] (000/146) No match
05 [425efbd7] (000/146) No match
06 [2e873a9a] (000/142) No match
07 [c57065b3] (000/144) No match
08 [6e2ce59a] (000/145) No match
09 [863e103f] (000/146) No match
10 [707ea957] (000/145) No match
11 [7ee7150d] (000/143) No match
12 [ca3fe915] (000/144) No match
13 [3f7804a2] (000/142) No match
14 [e5608592] (000/141) No match
15 [5cdcbbaf] (000/140) No match
Offsetted by 70:
01 [24d76343] (000/144) No match (V2 was not tested)
02 [807cf377] (000/146) No match (V2 was not tested)
03 [e06853af] (000/143) No match (V2 was not tested)
04 [e06625a2] (000/146) No match (V2 was not tested)
05 [78594b0b] (000/146) No match (V2 was not tested)
06 [0e7c8c46] (000/142) No match (V2 was not tested)
07 [4cefd9e7] (000/144) No match (V2 was not tested)
08 [e6284aee] (000/145) No match (V2 was not tested)
09 [c83ad583] (000/146) No match (V2 was not tested)
10 [d452369f] (000/145) No match (V2 was not tested)
11 [943dca5d] (000/143) No match (V2 was not tested)
12 [f82af1f5] (000/144) No match (V2 was not tested)
13 [cfe34f0e] (000/142) No match (V2 was not tested)
14 [62c91cca] (000/141) No match (V2 was not tested)
15 [a9a9e67f] (000/140) No match (V2 was not tested)
Offsetted by 380:
01 [5ef4c009] (000/144) No match (V2 was not tested)
02 [6ae52829] (000/146) No match (V2 was not tested)
03 [42965963] (000/143) No match (V2 was not tested)
04 [a89ae7ae] (000/146) No match (V2 was not tested)
05 [b947a6f9] (000/146) No match (V2 was not tested)
06 [2b283ca8] (000/142) No match (V2 was not tested)
07 [70faf555] (000/144) No match (V2 was not tested)
08 [5a1a050c] (000/145) No match (V2 was not tested)
09 [e1973909] (000/146) No match (V2 was not tested)
10 [bcfb9fcb] (000/145) No match (V2 was not tested)
11 [899762d5] (000/143) No match (V2 was not tested)
12 [53505a45] (000/144) No match (V2 was not tested)
13 [42c98290] (000/142) No match (V2 was not tested)
14 [4df3be5e] (000/141) No match (V2 was not tested)
15 [fe25eb37] (000/140) No match (V2 was not tested)
Offsetted by 398:
01 [e9c3414b] (000/144) No match (V2 was not tested)
02 [c7c8860f] (000/146) No match (V2 was not tested)
03 [cac3f69f] (000/143) No match (V2 was not tested)
04 [3d5057b2] (000/146) No match (V2 was not tested)
05 [d779d3f3] (000/146) No match (V2 was not tested)
06 [a563c11e] (000/142) No match (V2 was not tested)
07 [a2f84ccf] (000/144) No match (V2 was not tested)
08 [094c6416] (000/145) No match (V2 was not tested)
09 [77b55c8b] (000/146) No match (V2 was not tested)
10 [77e9622f] (000/145) No match (V2 was not tested)
11 [36646efd] (000/143) No match (V2 was not tested)
12 [329e7fb5] (000/144) No match (V2 was not tested)
13 [38f14d66] (000/142) No match (V2 was not tested)
14 [e9a54a3a] (000/141) No match (V2 was not tested)
15 [9117a61f] (000/140) No match (V2 was not tested)
Offsetted by 552:
01 [c6383dd5] (000/144) No match (V2 was not tested)
02 [8d28e24d] (000/146) No match (V2 was not tested)
03 [e611544b] (000/143) No match (V2 was not tested)
04 [a760a446] (000/146) No match (V2 was not tested)
05 [680aaa15] (000/146) No match (V2 was not tested)
06 [f40ba02c] (000/142) No match (V2 was not tested)
07 [c06fc771] (000/144) No match (V2 was not tested)
08 [8edee688] (000/145) No match (V2 was not tested)
09 [7c0c8c55] (000/146) No match (V2 was not tested)
10 [0c8636a3] (000/145) No match (V2 was not tested)
11 [522248c5] (000/143) No match (V2 was not tested)
12 [fe73f8e5] (000/144) No match (V2 was not tested)
13 [abd3f854] (000/142) No match (V2 was not tested)
14 [3a228506] (000/141) No match (V2 was not tested)
15 [96ba01a7] (000/140) No match (V2 was not tested)

Track Peak [ CRC32 ] [W/O NULL] [ LOG ]
– 99,9 [25800BF3] [8AE0635C]
01 99,9 [A62E6CD9] [69AF9CA4] CRC32
02 99,9 [E258511D] [59362FE7] CRC32
03 99,9 [3550D0BD] [D5446481] CRC32
04 99,9 [EDE30197] [8E6FFC3B] CRC32
05 99,9 [84E7B5D6] [01C90803] CRC32
06 99,9 [44EE7F45] [3F36BB07] CRC32
07 99,9 [9307AE1D] [6FF67175] CRC32
08 99,9 [F4DF67F9] [7CF655DF] CRC32
09 99,9 [22EA51AE] [5E637372] CRC32
10 99,9 [F5D70087] [010E36A7] CRC32
11 99,9 [F03EF959] [1EFBDE08] CRC32
12 99,9 [14D95D07] [3D615A92] CRC32
13 67,0 [AF3C890D] [E60413E2] CRC32
14 99,9 [B8B50149] [85250095] CRC32
15 99,9 [8939ED07] [A895CC1C] CRC32

Marianne Faithfull - Perfect Stranger: The Island Anthology (1998)

Tracklist CD2:

01 Ballad Of The Soldier's Wife (04:22
02 Trouble In Mind (The Return) (04:21
03 Boulevard Of Broken Dreams (03:05
04 Yesterdays (05:19)
05 Strange Weather (04:14)
06 Gloomy Sunday (03:13)
07 Hello Stranger (02:29)
08 As Tears Go By (03:45)
09 A Perfect Stranger (04:49)
10 Conversation On A Barstool (04:17)
11 A Waste Of Time (05:02)
12 Isolation (03:11)
13 Blazing Away (04:10)
14 When I Find My Life (Live) (03:00)
15 Times Square (Live) (04:36)
16 Ghost Dance (03:43)
17 Sleep (03:35)
18 Love In The Afternoon (03:30)
19 Bored By Dreams (03:07)
20 She (03:23)

Converted to Image (CUETools 2.1.4)

Exact Audio Copy V1.0 beta 3 from 29. August 2011

EAC extraction logfile from 14. February 2013, 13:20

Marianne Faithfull / Perfect Stranger - The Island Anthology CD2

Used drive : PLEXTOR CD-R PREMIUM2 Adapter: 4 ID: 0

Read mode : Secure
Utilize accurate stream : Yes
Defeat audio cache : Yes
Make use of C2 pointers : No

Read offset correction : 30
Overread into Lead-In and Lead-Out : Yes
Fill up missing offset samples with silence : Yes
Delete leading and trailing silent blocks : No
Null samples used in CRC calculations : Yes
Used interface : Native Win32 interface for Win NT & 2000
Gap handling : Appended to previous track

Used output format : User Defined Encoder
Selected bitrate : 1024 kBit/s
Quality : High
Add ID3 tag : No
Command line compressor : C:\Program Files (x86)\Exact Audio Copy\Flac\flac.exe
Additional command line options : -8 -V -T "ARTIST=%artist%" -T "TITLE=%title%" -T "ALBUM=%albumtitle%" -T "DATE=%year%" -T "TRACKNUMBER=%tracknr%" -T "TOTALTRACKS=%numtracks%" -T "GENRE=%genre%" -T "ALBUMARTIST=%albumartist%" -T "ALBUM ARTIST=%albumartist%" -T "COMMENT=EAC Secure Mode, Test & Copy, AccurateRip, FLAC -8" %source%


TOC of the extracted CD

Track | Start | Length | Start sector | End sector
––––––––––––––––––––––––––––-
1 | 0:00.00 | 4:25.10 | 0 | 19884
2 | 4:25.10 | 4:23.30 | 19885 | 39639
3 | 8:48.40 | 3:07.42 | 39640 | 53706
4 | 11:56.07 | 5:20.63 | 53707 | 77769
5 | 17:16.70 | 4:15.60 | 77770 | 96954
6 | 21:32.55 | 3:13.70 | 96955 | 111499
7 | 24:46.50 | 2:31.00 | 111500 | 122824
8 | 27:17.50 | 3:47.20 | 122825 | 139869
9 | 31:04.70 | 4:49.00 | 139870 | 161544
10 | 35:53.70 | 4:18.40 | 161545 | 180934
11 | 40:12.35 | 5:04.27 | 180935 | 203761
12 | 45:16.62 | 3:13.48 | 203762 | 218284
13 | 48:30.35 | 4:13.45 | 218285 | 237304
14 | 52:44.05 | 3:01.05 | 237305 | 250884
15 | 55:45.10 | 4:37.55 | 250885 | 271714
16 | 60:22.65 | 3:45.07 | 271715 | 288596
17 | 64:07.72 | 3:36.40 | 288597 | 304836
18 | 67:44.37 | 3:31.00 | 304837 | 320661
19 | 71:15.37 | 3:09.40 | 320662 | 334876
20 | 74:25.02 | 3:23.65 | 334877 | 350166


Track 1

Filename F:\Music\01 - ballad of the soldier's wife.wav

Pre-gap length 0:00:02.00

Peak level 93.2 %
Extraction speed 1.9 X
Track quality 100.0 %
Test CRC DED042B2
Copy CRC DED042B2
Accurately ripped (confidence 3) [D6409DCB] (AR v2)
Copy OK

Track 2

Filename F:\Music\02 - trouble in mind (the return).wav

Pre-gap length 0:00:01.70

Peak level 100.0 %
Extraction speed 1.9 X
Track quality 100.0 %
Test CRC 3116568C
Copy CRC 3116568C
Accurately ripped (confidence 3) [E840DB58] (AR v2)
Copy OK

Track 3

Filename F:\Music\03 - boulevard of broken dreams.wav

Pre-gap length 0:00:01.20

Peak level 100.0 %
Extraction speed 1.8 X
Track quality 99.9 %
Test CRC 32D468FC
Copy CRC 32D468FC
Accurately ripped (confidence 3) [0CF81966] (AR v2)
Copy OK

Track 4

Filename F:\Music\04 - yesterdays.wav

Pre-gap length 0:00:01.40

Peak level 99.9 %
Extraction speed 1.9 X
Track quality 100.0 %
Test CRC EFB9ADB1
Copy CRC EFB9ADB1
Accurately ripped (confidence 3) [87FDECA0] (AR v2)
Copy OK

Track 5

Filename F:\Music\05 - strange weather.wav

Pre-gap length 0:00:01.23

Peak level 100.0 %
Extraction speed 1.9 X
Track quality 100.0 %
Test CRC 3AC417A9
Copy CRC 3AC417A9
Accurately ripped (confidence 3) [F1A28B16] (AR v2)
Copy OK

Track 6

Filename F:\Music\06 - gloomy sunday.wav

Peak level 81.5 %
Extraction speed 1.9 X
Track quality 100.0 %
Test CRC B965FB51
Copy CRC B965FB51
Accurately ripped (confidence 3) [075307ED] (AR v2)
Copy OK

Track 7

Filename F:\Music\07 - hello stranger.wav

Peak level 100.0 %
Extraction speed 1.8 X
Track quality 100.0 %
Test CRC 89C74837
Copy CRC 89C74837
Accurately ripped (confidence 3) [0B1E57FF] (AR v2)
Copy OK

Track 8

Filename F:\Music\08 - as tears go by.wav

Peak level 100.0 %
Extraction speed 1.9 X
Track quality 100.0 %
Test CRC EC84C006
Copy CRC EC84C006
Accurately ripped (confidence 3) [D7853D8C] (AR v2)
Copy OK

Track 9

Filename F:\Music\09 - a perfect stranger.wav

Peak level 83.7 %
Extraction speed 1.9 X
Track quality 100.0 %
Test CRC 81D0F75E
Copy CRC 81D0F75E
Accurately ripped (confidence 3) [E3974CD8] (AR v2)
Copy OK

Track 10

Filename F:\Music\10 - conversation on a barstool.wav

Peak level 86.6 %
Extraction speed 1.9 X
Track quality 100.0 %
Test CRC B740B964
Copy CRC B740B964
Accurately ripped (confidence 3) [7FFA317D] (AR v2)
Copy OK

Track 11

Filename F:\Music\11 - a waste of time.wav

Pre-gap length 0:00:01.15

Peak level 79.2 %
Extraction speed 1.9 X
Track quality 100.0 %
Test CRC F91BF7A5
Copy CRC F91BF7A5
Accurately ripped (confidence 3) [B6C62FB4] (AR v2)
Copy OK

Track 12

Filename F:\Music\12 - isolation.wav

Pre-gap length 0:00:01.27

Peak level 100.0 %
Extraction speed 1.8 X
Track quality 100.0 %
Test CRC 8C9ADF4B
Copy CRC 8C9ADF4B
Accurately ripped (confidence 3) [B4B3F34B] (AR v2)
Copy OK

Track 13

Filename F:\Music\13 - blazing away.wav

Pre-gap length 0:00:01.70

Peak level 100.0 %
Extraction speed 1.8 X
Track quality 99.9 %
Test CRC 961CFAB6
Copy CRC 961CFAB6
Accurately ripped (confidence 3) [58D053A6] (AR v2)
Copy OK

Track 14

Filename F:\Music\14 - when I find my life (live).wav

Pre-gap length 0:00:02.23

Peak level 100.0 %
Extraction speed 1.8 X
Track quality 100.0 %
Test CRC 608D6183
Copy CRC 608D6183
Accurately ripped (confidence 3) [060B0C33] (AR v2)
Copy OK

Track 15

Filename F:\Music\15 - Times Square (live).wav

Peak level 100.0 %
Extraction speed 1.8 X
Track quality 100.0 %
Test CRC 5CCCB867
Copy CRC 5CCCB867
Accurately ripped (confidence 3) [3B1446E6] (AR v2)
Copy OK

Track 16

Filename F:\Music\16 - ghost dance.wav

Pre-gap length 0:00:01.25

Peak level 96.4 %
Extraction speed 1.8 X
Track quality 99.9 %
Test CRC 6CCE0CF1
Copy CRC 6CCE0CF1
Accurately ripped (confidence 3) [DE43A2A8] (AR v2)
Copy OK

Track 17

Filename F:\Music\17 - sleep.wav

Peak level 100.0 %
Extraction speed 1.8 X
Track quality 100.0 %
Test CRC 03F29012
Copy CRC 03F29012
Accurately ripped (confidence 3) [280AE729] (AR v2)
Copy OK

Track 18

Filename F:\Music\18 - love in the afternoon.wav

Peak level 100.0 %
Extraction speed 1.8 X
Track quality 100.0 %
Test CRC 651E8AF4
Copy CRC 651E8AF4
Accurately ripped (confidence 3) [8E26FE6C] (AR v2)
Copy OK

Track 19

Filename F:\Music\19 - bored by dreams.wav

Peak level 100.0 %
Extraction speed 1.8 X
Track quality 99.9 %
Test CRC 49CF831B
Copy CRC 49CF831B
Accurately ripped (confidence 3) [0AE31F1A] (AR v2)
Copy OK

Track 20

Filename F:\Music\20 - she.wav

Pre-gap length 0:00:01.22

Peak level 100.0 %
Extraction speed 1.9 X
Track quality 99.9 %
Test CRC 8E04D453
Copy CRC 8E04D453
Accurately ripped (confidence 3) [422C2E14] (AR v2)
Copy OK


All tracks accurately ripped

No errors occurred

End of status report

==== Log checksum D63B594630DA7CBF82F6B8E53974420CA1D4B55E36852BD7CEE701F95AB855EE ====

foobar2000 1.2.9 / Dynamic Range Meter 1.1.1
log date: 2016-06-25 13:28:11

––––––––––––––––––––––––––––––––––––––––
Analyzed: Marianne Faithfull / Perfect Stranger - The Island Anthology CD2
––––––––––––––––––––––––––––––––––––––––

DR Peak RMS Duration Track
––––––––––––––––––––––––––––––––––––––––
DR8 -0.60 dB -10.95 dB 4:25 01-ballad of the soldier's wife
DR12 0.00 dB -15.07 dB 4:23 02-trouble in mind (the return)
DR12 0.00 dB -14.25 dB 3:08 03-boulevard of broken dreams
DR11 0.00 dB -13.51 dB 5:21 04-yesterdays
DR12 0.00 dB -14.69 dB 4:16 05-strange weather
DR8 -1.77 dB -11.69 dB 3:14 06-gloomy sunday
DR12 0.00 dB -13.58 dB 2:31 07-hello stranger
DR11 0.00 dB -13.97 dB 3:47 08-as tears go by
DR8 -1.54 dB -11.14 dB 4:49 09-a perfect stranger
DR6 -1.25 dB -8.79 dB 4:19 10-conversation on a barstool
DR8 -2.02 dB -11.44 dB 5:04 11-a waste of time
DR9 0.00 dB -11.16 dB 3:14 12-isolation
DR11 0.00 dB -12.95 dB 4:14 13-blazing away
DR12 0.00 dB -16.00 dB 3:01 14-when I find my life (live)
DR12 0.00 dB -16.33 dB 4:38 15-Times Square (live)
DR12 -0.31 dB -13.72 dB 3:45 16-ghost dance
DR10 0.00 dB -11.35 dB 3:37 17-sleep
DR11 0.00 dB -13.37 dB 3:31 18-love in the afternoon
DR11 0.00 dB -12.35 dB 3:10 19-bored by dreams
DR11 0.00 dB -12.75 dB 3:24 20-she
––––––––––––––––––––––––––––––––––––––––

Number of tracks: 20
Official DR value: DR10

Samplerate: 44100 Hz
Channels: 2
Bits per sample: 16
Bitrate: 807 kbps
Codec: FLAC

[CUETools log; Date: 25.06.2016 13:27:59; Version: 2.1.4]
[CTDB TOCID: 3YyQgwzGdvOMWnEkhYxyuDQuOrI-] found.
Track | CTDB Status
1 | (89/91) Accurately ripped
2 | (88/91) Accurately ripped
3 | (89/91) Accurately ripped
4 | (89/91) Accurately ripped
5 | (89/91) Accurately ripped
6 | (89/91) Accurately ripped
7 | (89/91) Accurately ripped
8 | (90/91) Accurately ripped
9 | (88/91) Accurately ripped, or (2/91) differs in 12 samples @01:25:49
10 | (88/91) Accurately ripped
11 | (87/91) Accurately ripped
12 | (88/91) Accurately ripped
13 | (89/91) Accurately ripped
14 | (88/91) Accurately ripped
15 | (90/91) Accurately ripped
16 | (89/91) Accurately ripped
17 | (89/91) Accurately ripped
18 | (89/91) Accurately ripped
19 | (89/91) Accurately ripped
20 | (88/91) Accurately ripped
[AccurateRip ID: 0039c3fc-034aa876-3c123c14] found.
Track [ CRC | V2 ] Status
01 [0c81bc15|d6409dcb] (026+040/139) Accurately ripped
02 [3f8237fd|e840db58] (027+040/139) Accurately ripped
03 [4c1392a4|0cf81966] (028+040/140) Accurately ripped
04 [03cc583b|87fdeca0] (027+040/139) Accurately ripped
05 [89107c36|f1a28b16] (028+040/140) Accurately ripped
06 [fd6bb168|075307ed] (028+040/140) Accurately ripped
07 [cb524922|0b1e57ff] (027+040/139) Accurately ripped
08 [b0cb7725|d7853d8c] (027+040/139) Accurately ripped
09 [a31fa6fd|e3974cd8] (027+039/138) Accurately ripped
10 [b3c0eb3c|7ffa317d] (027+040/140) Accurately ripped
11 [5246b931|b6c62fb4] (028+040/140) Accurately ripped
12 [0749d882|b4b3f34b] (028+040/139) Accurately ripped
13 [17710f5a|58d053a6] (028+040/140) Accurately ripped
14 [bd693a0e|060b0c33] (027+040/138) Accurately ripped
15 [4d1b069a|3b1446e6] (027+040/139) Accurately ripped
16 [193f76d1|de43a2a8] (027+040/139) Accurately ripped
17 [46d65883|280ae729] (027+040/138) Accurately ripped
18 [135dc236|8e26fe6c] (027+039/137) Accurately ripped
19 [f631d2cd|0ae31f1a] (027+039/136) Accurately ripped
20 [75e4e4a9|422c2e14] (026+039/135) Accurately ripped
Offsetted by -1558:
01 [770b1939] (012/139) Accurately ripped
02 [2771dbbd] (011/139) Accurately ripped
03 [913f2eae] (011/140) Accurately ripped
04 [1cfa595b] (011/139) Accurately ripped
05 [d3b16cce] (011/140) Accurately ripped
06 [a3ad3736] (011/140) Accurately ripped
07 [96118d48] (011/139) Accurately ripped
08 [b1136ff1] (011/139) Accurately ripped
09 [39cbad61] (011/138) Accurately ripped
10 [16607c4a] (012/140) Accurately ripped
11 [f9a0d9c9] (011/140) Accurately ripped
12 [922eb3ae] (011/139) Accurately ripped
13 [a7ccceec] (011/140) Accurately ripped
14 [112d432c] (011/138) Accurately ripped
15 [9429fe1a] (011/139) Accurately ripped
16 [43f5b367] (011/139) Accurately ripped
17 [60d44909] (011/138) Accurately ripped
18 [a43fd870] (011/137) Accurately ripped
19 [6f0b023b] (011/136) Accurately ripped
20 [c2c6d753] (011/135) Accurately ripped
Offsetted by -1386:
01 [f1086bf1] (005/139) Accurately ripped
02 [3cd5443d] (005/139) Accurately ripped
03 [b0b7931a] (005/140) Accurately ripped
04 [aebcbf1b] (005/139) Accurately ripped
05 [8328099e] (005/140) Accurately ripped
06 [5e629d1a] (005/140) Accurately ripped
07 [03cb247c] (005/139) Accurately ripped
08 [80145d59] (005/139) Accurately ripped
09 [7aa93d99] (005/138) Accurately ripped
10 [8809dbae] (005/140) Accurately ripped
11 [aea11699] (005/140) Accurately ripped
12 [db3fd456] (005/139) Accurately ripped
13 [359a9648] (005/140) Accurately ripped
14 [57faf233] (005/138) Accurately ripped
15 [4f59dc17] (005/139) Accurately ripped
16 [cb9165bb] (005/139) Accurately ripped
17 [dc26ff7d] (005/138) Accurately ripped
18 [0ae3847c] (005/137) Accurately ripped
19 [86d61cdf] (005/136) Accurately ripped
20 [e7f7d67f] (005/135) Accurately ripped
Offsetted by -1371:
01 [e25e8387] (003/139) Accurately ripped
02 [c02fcbdd] (003/139) Accurately ripped
03 [201cdd59] (003/140) Accurately ripped
04 [59375fcb] (003/139) Accurately ripped
05 [d2755bc2] (003/140) Accurately ripped
06 [0c6f74df] (003/140) Accurately ripped
07 [8a62c505] (003/139) Accurately ripped
08 [151be32b] (003/139) Accurately ripped
09 [acf8190f] (003/138) Accurately ripped
10 [75abfa53] (003/140) Accurately ripped
11 [a816b0bd] (003/140) Accurately ripped
12 [308152b8] (003/139) Accurately ripped
13 [e2b6f393] (003/140) Accurately ripped
14 [348e1a82] (003/138) Accurately ripped
15 [cec436fd] (003/139) Accurately ripped
16 [64ca236c] (003/139) Accurately ripped
17 [b44d7796] (003/138) Accurately ripped
18 [47eed083] (003/137) Accurately ripped
19 [905a6e14] (003/136) Accurately ripped
20 [7e8f75ae] (003/135) Accurately ripped
Offsetted by -43:
01 [ae026767] (006/139) Accurately ripped
02 [fa295ddd] (006/139) Accurately ripped
03 [84357989] (006/140) Accurately ripped
04 [5f5bbecb] (006/139) Accurately ripped
05 [1d32d502] (006/140) Accurately ripped
06 [4ebe57ef] (006/140) Accurately ripped
07 [afe3e355] (006/139) Accurately ripped
08 [7d0b3bcb] (006/139) Accurately ripped
09 [12e842ef] (006/138) Accurately ripped
10 [d7569363] (006/140) Accurately ripped
11 [6506a9fd] (006/140) Accurately ripped
12 [35059058] (006/139) Accurately ripped
13 [f3fd9d83] (006/140) Accurately ripped
14 [18a5a51d] (006/138) Accurately ripped
15 [5388e112] (006/139) Accurately ripped
16 [b7588a3c] (006/139) Accurately ripped
17 [a801aae6] (006/138) Accurately ripped
18 [b9b4d733] (006/137) Accurately ripped
19 [303f0c24] (006/136) Accurately ripped
20 [2c98a4de] (006/135) Accurately ripped
Offsetted by 621:
01 [13d45957] (003/139) Accurately ripped
02 [172626dd] (003/139) Accurately ripped
03 [b641c7a1] (003/140) Accurately ripped
04 [626dee4b] (003/139) Accurately ripped
05 [c29191a2] (003/140) Accurately ripped
06 [efe5c977] (003/140) Accurately ripped
07 [c2a4727d] (003/139) Accurately ripped
08 [3102e81b] (003/139) Accurately ripped
09 [c5e057df] (003/138) Accurately ripped
10 [882bdfeb] (003/140) Accurately ripped
11 [437ea69d] (003/140) Accurately ripped
12 [3747af28] (003/139) Accurately ripped
13 [7ca0f27b] (003/140) Accurately ripped
14 [3f9c9d66] (003/138) Accurately ripped
15 [add9a051] (003/139) Accurately ripped
16 [e09fbda4] (003/139) Accurately ripped
17 [a1dbc48e] (003/138) Accurately ripped
18 [f297da8b] (003/137) Accurately ripped
19 [80315b2c] (003/136) Accurately ripped
20 [039d3c76] (003/135) Accurately ripped
Offsetted by -707:
01 [48307577] (000/139) No match (V2 was not tested)
02 [dd2c94dd] (000/139) No match (V2 was not tested)
03 [52292b71] (000/140) No match (V2 was not tested)
04 [5c498f4b] (000/139) No match (V2 was not tested)
05 [77d41862] (000/140) No match (V2 was not tested)
06 [ad96e667] (000/140) No match (V2 was not tested)
07 [9d23542d] (000/139) No match (V2 was not tested)
08 [c9138f7b] (000/139) No match (V2 was not tested)
09 [5ff02dff] (000/138) No match (V2 was not tested)
10 [268146db] (000/140) No match (V2 was not tested)
11 [868ead5d] (000/140) No match (V2 was not tested)
12 [32c37188] (000/139) No match (V2 was not tested)
13 [6b5a488b] (000/140) No match (V2 was not tested)
14 [7ab9ff67] (000/138) No match (V2 was not tested)
15 [f4ff7000] (000/139) No match (V2 was not tested)
16 [8e1156d4] (000/139) No match (V2 was not tested)
17 [ae27913e] (000/138) No match (V2 was not tested)
18 [80d1d3db] (000/137) No match (V2 was not tested)
19 [e04cbd1c] (000/136) No match (V2 was not tested)
20 [55940d46] (000/135) No match (V2 was not tested)
Offsetted by -46:
01 [7dbdfc49] (000/139) No match (V2 was not tested)
02 [131742bd] (000/139) No match (V2 was not tested)
03 [3abad116] (000/140) No match (V2 was not tested)
04 [d6dcd1db] (000/139) No match (V2 was not tested)
05 [da235e2e] (000/140) No match (V2 was not tested)
06 [c588932e] (000/140) No match (V2 was not tested)
07 [fb5f29a0] (000/139) No match (V2 was not tested)
08 [2c09baa1] (000/139) No match (V2 was not tested)
09 [08d87d71] (000/138) No match (V2 was not tested)
10 [749c8d42] (000/140) No match (V2 was not tested)
11 [66558b29] (000/140) No match (V2 was not tested)
12 [f0c543de] (000/139) No match (V2 was not tested)
13 [9e2b2474] (000/140) No match (V2 was not tested)
14 [7b96a198] (000/138) No match (V2 was not tested)
15 [179d9166] (000/139) No match (V2 was not tested)
16 [98b3977f] (000/139) No match (V2 was not tested)
17 [499392e1] (000/138) No match (V2 was not tested)
18 [ad7f6198] (000/137) No match (V2 was not tested)
19 [2e57c8b3] (000/136) No match (V2 was not tested)
20 [74e0b83b] (000/135) No match (V2 was not tested)

Track Peak [ CRC32 ] [W/O NULL] [ LOG ]
– 99,9 [F6D6DC57] [2AB61D52]
01 93,2 [DED042B2] [DDF79475] CRC32
02 99,9 [3116568C] [20A71114] CRC32
03 99,9 [32D468FC] [E0D0D65E] CRC32
04 99,9 [EFB9ADB1] [D25D17BE] CRC32
05 99,9 [3AC417A9] [84CAB100] CRC32
06 81,5 [B965FB51] [045CE92B] CRC32
07 99,9 [89C74837] [9142424D] CRC32
08 99,9 [EC84C006] [6F01ED7C] CRC32
09 83,7 [81D0F75E] [38EBEC74] CRC32
10 86,6 [B740B964] [35E3380B] CRC32
11 79,2 [F91BF7A5] [4922096D] CRC32
12 99,9 [8C9ADF4B] [648890E1] CRC32
13 99,9 [961CFAB6] [43B34109] CRC32
14 99,9 [608D6183] [A8EC9E16] CRC32
15 99,9 [5CCCB867] [7E1ED95D] CRC32
16 96,4 [6CCE0CF1] [CAA2CDFD] CRC32
17 99,9 [03F29012] [CD6F6743] CRC32
18 99,9 [651E8AF4] [5891DA15] CRC32
19 99,9 [49CF831B] [82A9BE31] CRC32
20 99,9 [8E04D453] [593CA042] CRC32

Marianne Faithfull - Perfect Stranger: The Island Anthology (1998)

All thanks go to the original releaser

Marianne Faithfull in my Blog

Download Marianne Faithfull - Perfect Stranger: The Island Anthology (1998):