Subcategories

Marillion - Clutching at Straws (1987) (2cd edition) REPOST

Posted By: uff
Marillion - Clutching at Straws (1987) (2cd edition) REPOST

Marillion - Clutching at Straws (1987) (2cd edition)T
rock | 2cd | Eac Rip | Flac + Cue + Log | covers
EMI 1999| 24bit remaster | 730mb

Written and conceived during a period of inner-band turmoil, Clutching at Straws would prove to be Fish's swan song, and perhaps Marillion's most unheralded masterpiece. Teaming up once again with producer Chris Kimsey, Clutching at Straws showcases some of the band's most satisfying compositions, including the magnificent "Warm Wet Circles" and "That Time of the Night (The Short Straw)." Bookended by Fish's disgust with not only himself, "Torch Song," but also with the burgeoning neo-Nazi uprising in Europe, "White Russian," the great Scot delivers an inspired condemnation. The commercial pomp and circumstance of "Incommunicado" also gives way to a self-parodying confessional inspired by Fish's inability to see himself as a bona fide rock star and celebrity ("I want to do adverts for American Express cards, talk shows on prime time T.V."). Tour opener "Slainte Mhath" is simple and elegant, building to its dramatic crescendo only to be upstaged by "Sugar Mice" – quite simply, one of Marillion's best commercial singles ever. The album's stunning closer, "The Last Straw," is Fish's self-realization that yes, the band is not only over, but that in his mind, it's null and void ("and if you ever come across us, don't give us your sympathy"). Steve Rothery's blinding guitar solo brings the whole thing down to a crashing finish (prophetically, announcing his arrival as the band's true musical instigator on subsequent Fish-less records).

Tracks:
1. "Hotel Hobbies" – 3:35
2. "Warm Wet Circles" – 4:25
3. "That Time Of The Night (The Short Straw)" – 6:00
4. "Going Under" – 2:47 (not on the original vinyl LP)
5. "Just For The Record" – 3:09
6. "White Russian" – 6:27
7. "Incommunicado" – 5:16
8. "Torch Song" – 4:05
9. "Slàinte Mhath" – 4:44
10. "Sugar Mice" – 5:46
11. "The Last Straw" – 5:58
bonus disc:
1. "Incommunicado" (Alternative Version) – 5:57
2. "Tux On" – 5:13
3. "Going Under" (Extended Version) – 2:48
4. "Beaujolais Day" – 4:51
5. "Story From A Thin Wall" – 6:47
6. "Shadows On The Barley" – 2:07
7. "Sunset Hill" – 4:21
8. "Tic-Tac-Toe" – 2:59
9. "Voice In The Crowd" – 3:29
10. "Exile On Princes Street" – 5:29
11. "White Russians" (Demo) – 6:15
12. "Sugar Mice In The Rain" (Demo) – 5:54

Personnel:
* Fish – vocals
* Steve Rothery – guitars
* Mark Kelly – keyboards
* Pete Trewavas – bass
* Ian Mosley – drums
* Tessa Niles – backing vocals on "That Time Of The Night" and "The Last Straw"
* Chris Kimsey (credited as "Christopher 'Robbin' Kimsey") – backing vocals on "Incommunicado"
* John Cavanaugh – "Dr. Finlay" voice on "Torch Song"

Exact Audio Copy V0.99 prebeta 5 from 4. May 2009

EAC extraction logfile from 17. October 2009, 18:29

Marillion / Clutching at Straws [24-bit Remaster CD 1]

Used drive : HL-DT-STDVDRAM GSA-H10A Adapter: 1 ID: 0

Read mode : Secure
Utilize accurate stream : Yes
Defeat audio cache : Yes
Make use of C2 pointers : No

Read offset correction : 667
Overread into Lead-In and Lead-Out : No
Fill up missing offset samples with silence : Yes
Delete leading and trailing silent blocks : No
Null samples used in CRC calculations : Yes
Used interface : Native Win32 interface for Win NT & 2000
Gap handling : Appended to previous track

Used output format : Internal WAV Routines
Sample format : 44.100 Hz; 16 Bit; Stereo


TOC of the extracted CD

Track | Start | Length | Start sector | End sector
––––––––––––––––––––––––––––-
1 | 0:00.00 | 3:35.30 | 0 | 16154
2 | 3:35.30 | 4:25.62 | 16155 | 36091
3 | 8:01.17 | 6:00.38 | 36092 | 63129
4 | 14:01.55 | 2:47.55 | 63130 | 75709
5 | 16:49.35 | 3:09.30 | 75710 | 89914
6 | 19:58.65 | 6:27.60 | 89915 | 118999
7 | 26:26.50 | 5:16.57 | 119000 | 142756
8 | 31:43.32 | 4:05.08 | 142757 | 161139
9 | 35:48.40 | 4:44.70 | 161140 | 182509
10 | 40:33.35 | 5:46.60 | 182510 | 208519
11 | 46:20.20 | 5:58.45 | 208520 | 235414


Track 1

Filename D:\Rebuilder\temp\01 - Hotel Hobbies.wav

Pre-gap length 0:00:02.00

Peak level 92.2 %
Track quality 100.0 %
Test CRC 304FA053
Copy CRC 304FA053
Copy OK

Track 2

Filename D:\Rebuilder\temp\02 - Warm Wet Circles.wav

Peak level 93.6 %
Track quality 100.0 %
Test CRC F903B735
Copy CRC F903B735
Copy OK

Track 3

Filename D:\Rebuilder\temp\03 - That Time of the Night (The Short Straw).wav

Peak level 91.8 %
Track quality 100.0 %
Test CRC 2679F4B0
Copy CRC 2679F4B0
Copy OK

Track 4

Filename D:\Rebuilder\temp\04 - Going Under.wav

Pre-gap length 0:00:01.15

Peak level 73.5 %
Track quality 100.0 %
Test CRC 2E714EDE
Copy CRC 2E714EDE
Copy OK

Track 5

Filename D:\Rebuilder\temp\05 - Just for the Record.wav

Pre-gap length 0:00:00.40

Peak level 96.7 %
Track quality 100.0 %
Test CRC 86F89C70
Copy CRC 86F89C70
Copy OK

Track 6

Filename D:\Rebuilder\temp\06 - White Russian.wav

Pre-gap length 0:00:00.01

Peak level 97.6 %
Track quality 100.0 %
Test CRC 5664462C
Copy CRC 5664462C
Copy OK

Track 7

Filename D:\Rebuilder\temp\07 - Incommunicado.wav

Pre-gap length 0:00:01.00

Peak level 89.3 %
Track quality 99.9 %
Test CRC D8BBFC2B
Copy CRC D8BBFC2B
Copy OK

Track 8

Filename D:\Rebuilder\temp\08 - Torch Song.wav

Pre-gap length 0:00:00.62

Peak level 94.2 %
Track quality 100.0 %
Test CRC 314F8AE9
Copy CRC 314F8AE9
Copy OK

Track 9

Filename D:\Rebuilder\temp\09 - Slainte Mhath.wav

Peak level 94.2 %
Track quality 99.9 %
Test CRC 402EABBF
Copy CRC 402EABBF
Copy OK

Track 10

Filename D:\Rebuilder\temp\10 - Sugar Mice.wav

Pre-gap length 0:00:02.63

Peak level 87.8 %
Track quality 100.0 %
Test CRC 7DAD0599
Copy CRC 7DAD0599
Copy OK

Track 11

Filename D:\Rebuilder\temp\11 - The Last Straw.wav

Pre-gap length 0:00:00.08

Peak level 97.6 %
Track quality 100.0 %
Test CRC B97AD9FF
Copy CRC B97AD9FF
Copy OK

No errors occurred

End of status report

––––––––––
Exact Audio Copy V0.99 prebeta 5 from 4. May 2009

EAC extraction logfile from 17. October 2009, 21:08

Marillion / Clutching at Straws [24-bit Remaster CD 2]

Used drive : HL-DT-STDVDRAM GSA-H10A Adapter: 1 ID: 0

Read mode : Secure
Utilize accurate stream : Yes
Defeat audio cache : Yes
Make use of C2 pointers : No

Read offset correction : 667
Overread into Lead-In and Lead-Out : No
Fill up missing offset samples with silence : Yes
Delete leading and trailing silent blocks : No
Null samples used in CRC calculations : Yes
Used interface : Native Win32 interface for Win NT & 2000
Gap handling : Appended to previous track

Used output format : Internal WAV Routines
Sample format : 44.100 Hz; 16 Bit; Stereo


TOC of the extracted CD

Track | Start | Length | Start sector | End sector
––––––––––––––––––––––––––––-
1 | 0:00.00 | 5:57.70 | 0 | 26844
2 | 5:57.70 | 5:13.70 | 26845 | 50389
3 | 11:11.65 | 2:48.20 | 50390 | 63009
4 | 14:00.10 | 4:51.10 | 63010 | 84844
5 | 18:51.20 | 6:47.50 | 84845 | 115419
6 | 25:38.70 | 2:07.10 | 115420 | 124954
7 | 27:46.05 | 4:21.40 | 124955 | 144569
8 | 32:07.45 | 2:59.27 | 144570 | 158021
9 | 35:06.72 | 3:29.73 | 158022 | 173769
10 | 38:36.70 | 5:29.55 | 173770 | 198499
11 | 44:06.50 | 6:15.72 | 198500 | 226696
12 | 50:22.47 | 5:54.05 | 226697 | 253251


Track 1

Filename D:\Rebuilder\temp\01 - Incommunicado [Alternative Version].wav

Pre-gap length 0:00:02.00

Peak level 97.6 %
Track quality 99.9 %
Test CRC FC40F75E
Copy CRC FC40F75E
Copy OK

Track 2

Filename D:\Rebuilder\temp\02 - Tux On.wav

Peak level 90.4 %
Track quality 100.0 %
Test CRC 46DEAB63
Copy CRC 46DEAB63
Copy OK

Track 3

Filename D:\Rebuilder\temp\03 - Going Under [Extended Version].wav

Peak level 86.0 %
Track quality 100.0 %
Test CRC 708CFBA0
Copy CRC 708CFBA0
Copy OK

Track 4

Filename D:\Rebuilder\temp\04 - Beaujolais Day.wav

Peak level 87.6 %
Track quality 100.0 %
Test CRC 998FE513
Copy CRC 998FE513
Copy OK

Track 5

Filename D:\Rebuilder\temp\05 - Story from a Thin Wall.wav

Peak level 87.6 %
Track quality 100.0 %
Test CRC ED960577
Copy CRC ED960577
Copy OK

Track 6

Filename D:\Rebuilder\temp\06 - Shadows on the Barley.wav

Peak level 91.4 %
Track quality 100.0 %
Test CRC 546BD7AA
Copy CRC 546BD7AA
Copy OK

Track 7

Filename D:\Rebuilder\temp\07 - Sunset Hill.wav

Peak level 87.6 %
Track quality 100.0 %
Test CRC 62FC7A85
Copy CRC 62FC7A85
Copy OK

Track 8

Filename D:\Rebuilder\temp\08 - Tic-Tac-Toe.wav

Peak level 87.6 %
Track quality 100.0 %
Test CRC 898E68B3
Copy CRC 898E68B3
Copy OK

Track 9

Filename D:\Rebuilder\temp\09 - Voice in the Crowd.wav

Peak level 71.4 %
Track quality 100.0 %
Test CRC E811B2D6
Copy CRC E811B2D6
Copy OK

Track 10

Filename D:\Rebuilder\temp\10 - Exile on Princes Street.wav

Peak level 87.6 %
Track quality 99.9 %
Test CRC 94E63867
Copy CRC 94E63867
Copy OK

Track 11

Filename D:\Rebuilder\temp\11 - White Russians [Demo].wav

Peak level 87.5 %
Track quality 100.0 %
Test CRC 5830D825
Copy CRC 5830D825
Copy OK

Track 12

Filename D:\Rebuilder\temp\12 - Sugar Mice in the Rain.wav

Peak level 89.7 %
Track quality 100.0 %
Test CRC 0F390637
Copy CRC 0F390637
Copy OK

No errors occurred

End of status report



[CUETools log; Date: 2013.01.17. 14:11:43; Version: 2.1.4]
[CTDB TOCID: 7e3WNCTw0TxVWchjBSAXqdMuWn4-] found.
Track | CTDB Status
1 | (64/66) Accurately ripped
2 | (65/66) Accurately ripped
3 | (64/66) Accurately ripped
4 | (65/66) Accurately ripped
5 | (65/66) Accurately ripped
6 | (65/66) Accurately ripped
7 | (65/66) Accurately ripped
8 | (65/66) Accurately ripped
9 | (65/66) Accurately ripped
10 | (65/66) Accurately ripped
11 | (64/66) Accurately ripped
[AccurateRip ID: 00144ca8-00b23a07-7e0c420b] found.
Track [ CRC | V2 ] Status
01 [29f3f01e|45fe28cd] (000+000/222) No match
02 [07e63638|ce6e627a] (000+000/225) No match
03 [261a80a0|049ee0b4] (000+000/226) No match
04 [929ab516|cce742f8] (000+000/226) No match
05 [3d9d77e7|835200b4] (000+000/227) No match
06 [ba3f6695|d5099b00] (000+000/227) No match
07 [72c61927|e2ef5cca] (000+000/225) No match
08 [de8341c7|e927004c] (000+000/223) No match
09 [df947de0|b9b9967f] (000+000/226) No match
10 [92480986|f5ba2f33] (000+000/226) No match
11 [c087b012|4464e65d] (000+000/222) No match
Offsetted by -1974:
01 [463fdca4] (011/222) Accurately ripped
02 [4f0253c5] (011/225) Accurately ripped
03 [a7c7a9f9] (011/226) Accurately ripped
04 [6d6cf5e4] (011/226) Accurately ripped
05 [63694aa3] (011/227) Accurately ripped
06 [a3804a2f] (011/227) Accurately ripped
07 [06b8d4c7] (011/225) Accurately ripped
08 [8b827c62] (011/223) Accurately ripped
09 [284c49f7] (011/226) Accurately ripped
10 [b845146b] (011/226) Accurately ripped
11 [3701441b] (011/222) Accurately ripped
Offsetted by -1310:
01 [6093004c] (020/222) Accurately ripped
02 [a5ba29bd] (021/225) Accurately ripped
03 [73533c05] (021/226) Accurately ripped
04 [631b57ec] (021/226) Accurately ripped
05 [f32615de] (021/227) Accurately ripped
06 [ff97a938] (021/227) Accurately ripped
07 [e1ecc247] (020/225) Accurately ripped
08 [ad55e6e4] (020/223) Accurately ripped
09 [24b8e305] (020/226) Accurately ripped
10 [a387bf14] (020/226) Accurately ripped
11 [7b96cbba] (020/222) Accurately ripped
Offsetted by -664:
01 [17eb668e] (015/222) Accurately ripped
02 [12651671] (015/225) Accurately ripped
03 [c798d74b] (015/226) Accurately ripped
04 [9cec530e] (015/226) Accurately ripped
05 [62db85b4] (015/227) Accurately ripped
06 [93feac80] (015/227) Accurately ripped
07 [97922ba7] (015/225) Accurately ripped
08 [a65186f3] (015/223) Accurately ripped
09 [ef9123a4] (015/226) Accurately ripped
10 [427f1300] (015/226) Accurately ripped
11 [806748e8] (015/222) Accurately ripped
Offsetted by -651:
01 [afad5a0c] (003/222) Accurately ripped
02 [513a0082] (003/225) Accurately ripped
03 [e419f6b6] (003/226) Accurately ripped
04 [dd7e00ed] (003/226) Accurately ripped
05 [8bb33b08] (003/227) Accurately ripped
06 [9fdff4ab] (003/227) Accurately ripped
07 [cf23c3f7] (003/225) Accurately ripped
08 [4db0e8f3] (003/223) Accurately ripped
09 [c50b4647] (003/226) Accurately ripped
10 [2b167258] (003/226) Accurately ripped
11 [7cc7c303] (003/222) Accurately ripped
Offsetted by -646:
01 [0a34244c] (007/222) Accurately ripped
02 [41ac5189] (007/225) Accurately ripped
03 [21fe13d9] (007/226) Accurately ripped
04 [58c9b9f4] (007/226) Accurately ripped
05 [7e3514a3] (007/227) Accurately ripped
06 [07319a4f] (007/227) Accurately ripped
07 [bd20afc7] (007/225) Accurately ripped
08 [9bd9dc79] (007/223) Accurately ripped
09 [85ec16dc] (007/226) Accurately ripped
10 [34a99412] (007/226) Accurately ripped
11 [ca46546c] (007/222) Accurately ripped
Offsetted by 18:
01 [2542312e] (127/222) Accurately ripped
02 [ab3221be] (129/225) Accurately ripped
03 [c9a736be] (130/226) Accurately ripped
04 [4e781bfc] (130/226) Accurately ripped
05 [bc2d4532] (130/227) Accurately ripped
06 [72666f5c] (130/227) Accurately ripped
07 [98549d47] (129/225) Accurately ripped
08 [8a5417f3] (128/223) Accurately ripped
09 [e0d0b39a] (131/226) Accurately ripped
10 [1966d63d] (130/226) Accurately ripped
11 [1feebb69] (126/222) Accurately ripped
Offsetted by 1046:
01 [42ada564] (013/222) Accurately ripped
02 [fa8aa2e9] (013/225) Accurately ripped
03 [38969225] (013/226) Accurately ripped
04 [54158268] (013/226) Accurately ripped
05 [bba65264] (014/227) Accurately ripped
06 [4e2c3df6] (014/227) Accurately ripped
07 [87753387] (014/225) Accurately ripped
08 [73fa0ab6] (013/223) Accurately ripped
09 [dfaffb5b] (013/226) Accurately ripped
10 [1243a8c9] (014/226) Accurately ripped
11 [24e97249] (014/222) Accurately ripped
Offsetted by 24:
01 [87bdbfee] (000/222) No match
02 [fea8ec43] (000/225) No match
03 [866bf529] (000/226) No match
04 [e26c939e] (000/226) No match
05 [d75c67c4] (000/227) No match
06 [058a7260] (000/227) No match
07 [4f841ea7] (000/225) No match
08 [12073d02] (000/223) No match (V2 was not tested)
09 [84093119] (000/226) No match
10 [3d76abf5] (000/226) No match
11 [ea8f69e3] (000/222) No match

Track Peak [ CRC32 ] [W/O NULL] [ LOG ]
– 97,6 [220183B8] [7B85F3D3]
01 92,2 [304FA053] [D1DECFD7] CRC32
02 93,6 [F903B735] [42F2010C] CRC32
03 91,8 [2679F4B0] [F03246B5] CRC32
04 73,5 [2E714EDE] [2885555C] CRC32
05 96,7 [86F89C70] [25681ACA] CRC32
06 97,6 [5664462C] [BB4F68D0] CRC32
07 89,3 [D8BBFC2B] [E6BDF114] CRC32
08 94,2 [314F8AE9] [DF01DFF2] CRC32
09 94,2 [402EABBF] [13FCFB6D] CRC32
10 87,8 [7DAD0599] [524B1EA5] CRC32
11 97,6 [B97AD9FF] [A1D04411] CRC32
–––––––––––
[CUETools log; Date: 2013.01.17. 14:12:08; Version: 2.1.4]
[CTDB TOCID: USp2lAJW1FKnZ0U4z98T2ABvqWA-] found.
Track | CTDB Status
1 | (32/32) Accurately ripped
2 | (31/32) Accurately ripped
3 | (32/32) Accurately ripped
4 | (32/32) Accurately ripped
5 | (32/32) Accurately ripped
6 | (32/32) Accurately ripped
7 | (32/32) Accurately ripped
8 | (32/32) Accurately ripped
9 | (32/32) Accurately ripped
10 | (32/32) Accurately ripped
11 | (31/32) Accurately ripped
12 | (27/32) Differs in 1015 samples @05:02:74,05:04:02,05:04:61-05:04:62,05:05:06-05:05:07,05:05:27,05:05:65,05:06:10,05:06:30,05:07:14,05:07:34,05:07:53-05:07:54,05:07:74,05:08:18,05:08:37-05:08:38,05:08:57-05:08:58,05:09:02-05:09:03,05:09:22,05:09:41-05:09:42,05:09:61-05:09:62,05:10:06,05:10:25,05:10:45-05:10:46,05:10:65-05:10:66,05:11:09-05:11:10,05:11:49-05:11:50,05:11:69,05:12:14,05:12:33,05:12:73,05:14:22,05:15:25,05:15:64-05:15:65,05:16:49-05:16:50,05:17:13,05:17:33,05:17:53,05:17:72-05:17:73,05:18:17-05:18:18,05:18:37-05:18:38,05:18:57,05:19:01-05:19:02,05:19:22,05:19:41-05:19:42,05:19:61,05:20:05-05:20:06,05:20:26,05:20:45-05:20:46,05:20:64-05:20:65,05:21:09-05:21:10,05:21:49,05:22:13-05:22:14,05:22:53,05:26:29,05:26:49-05:26:50,05:28:18,05:28:57,05:29:02,05:29:21-05:29:22,05:29:41-05:29:42,05:29:61-05:29:62,05:30:06-05:30:07,05:30:26,05:30:45-05:30:46,05:30:65,05:31:10-05:31:11,05:31:30-05:31:31,05:32:53-05:32:54,05:32:74, or (4/32) differs in 1015 samples @05:02:74,05:04:02,05:04:61-05:04:62,05:05:06-05:05:07,05:05:27,05:05:65,05:06:10,05:06:30,05:07:14,05:07:34,05:07:53-05:07:54,05:07:74,05:08:18,05:08:37-05:08:38,05:08:57-05:08:58,05:09:02-05:09:03,05:09:22,05:09:41-05:09:42,05:09:61-05:09:62,05:10:06,05:10:25,05:10:45-05:10:46,05:10:65-05:10:66,05:11:09-05:11:10,05:11:49-05:11:50,05:11:69,05:12:14,05:12:33,05:12:73,05:14:22,05:15:25,05:15:64-05:15:65,05:16:49-05:16:50,05:17:13,05:17:33,05:17:53,05:17:72-05:17:73,05:18:17-05:18:18,05:18:37-05:18:38,05:18:57,05:19:01-05:19:02,05:19:22,05:19:41-05:19:42,05:19:61,05:20:05-05:20:06,05:20:26,05:20:45-05:20:46,05:20:64-05:20:65,05:21:09-05:21:10,05:21:49,05:22:13-05:22:14,05:22:53,05:26:29,05:26:49-05:26:50,05:28:18,05:28:57,05:29:02,05:29:21-05:29:22,05:29:41-05:29:42,05:29:61-05:29:62,05:30:06-05:30:07,05:30:26,05:30:45-05:30:46,05:30:65,05:31:10-05:31:11,05:31:30-05:31:31,05:32:53-05:32:54,05:32:74
[AccurateRip ID: 0018b934-00e44921-a30d300c] found.
Track [ CRC | V2 ] Status
01 [e549230d|fcace05a] (0+0/7) No match
02 [44b90fde|d64587bd] (0+0/7) No match
03 [e059286a|0d37dc73] (0+0/7) No match
04 [af81222d|ac9cb63e] (0+0/7) No match
05 [84009cee|4bee5387] (0+0/7) No match
06 [57894407|91575044] (0+0/7) No match
07 [fa3050ee|9daf07b1] (0+0/7) No match
08 [398b235e|0c80bbe1] (0+0/7) No match
09 [96887038|a879625f] (0+0/7) No match
10 [a25bcbe3|64f12b70] (0+0/7) No match
11 [773b7a8a|b86fac0c] (0+0/7) No match
12 [06ba4159|a29b6d73] (0+0/7) No match
Offsetted by 9:
01 [667ff312] (0/7) No match (V2 was not tested)
02 [7ed90048] (0/7) No match (V2 was not tested)
03 [8a2bf8e0] (0/7) No match (V2 was not tested)
04 [46c43d07] (0/7) No match (V2 was not tested)
05 [ecdcc882] (0/7) No match (V2 was not tested)
06 [773c8acc] (0/7) No match (V2 was not tested)
07 [04ce8d00] (0/7) No match (V2 was not tested)
08 [efba1160] (0/7) No match (V2 was not tested)
09 [6d235af1] (0/7) No match (V2 was not tested)
10 [d03b1e48] (0/7) No match (V2 was not tested)
11 [7c60ed4b] (0/7) No match (V2 was not tested)
12 [68c25ff5] (0/7) No match (V2 was not tested)
Offsetted by 685:
01 [fa94fba6] (7/7) Accurately ripped
02 [19a5ae47] (7/7) Accurately ripped
03 [33683eed] (7/7) Accurately ripped
04 [fd91016f] (7/7) Accurately ripped
05 [1dc2feb9] (7/7) Accurately ripped
06 [19a64e61] (7/7) Accurately ripped
07 [77ad8248] (7/7) Accurately ripped
08 [63b7e668] (7/7) Accurately ripped
09 [9d420055] (7/7) Accurately ripped
10 [7ea4a05c] (7/7) Accurately ripped
11 [99354feb] (7/7) Accurately ripped
12 [a4b9a311] (0/7) No match (V2 was not tested)

Track Peak [ CRC32 ] [W/O NULL] [ LOG ]
– 97,6 [5602FB1D] [C6D419B3]
01 97,6 [FC40F75E] [8D902357] CRC32
02 90,4 [46DEAB63] [0C5B754A] CRC32
03 86,0 [708CFBA0] [2A7B44F7] CRC32
04 87,6 [998FE513] [211953C5] CRC32
05 87,6 [ED960577] [1B1A1E2A] CRC32
06 91,4 [546BD7AA] [DF95A6D5] CRC32
07 87,6 [62FC7A85] [D334CC92] CRC32
08 87,6 [898E68B3] [98E8C62E] CRC32
09 71,4 [E811B2D6] [1BBD2FAE] CRC32
10 87,6 [94E63867] [905310C4] CRC32
11 87,5 [5830D825] [D613750A] CRC32
12 89,7 [0F390637] [9CB62401] CRC32



Thx to the original uploader

More Marillion on my blog