Subcategories
Please register here if you want to download anything!

If domain in your address bar is different from the list below
PLEASE LEAVE THAT SITE IMMEDIATELY
❗IT'S A DANGEROUS FAKE❗



Spicy Magazines for Men! ;-)

Marilyn Manson - The Golden Age Of Grotesque (2003) [Japanese Edition]

Posted By: gribovar
Marilyn Manson - The Golden Age Of Grotesque (2003) [Japanese Edition]

Marilyn Manson - The Golden Age Of Grotesque (2003) [Japanese Edition]
EAC Rip | FLAC (image+.cue+log) - 491 MB | MP3 CBR 320 kbps (LAME 3.93) - 160 MB | Covers - 36 MB
Genre: Alternative/Industrial Metal | RAR 3% Rec. | Label: Universal Music (UICY-6169), 2006

Timing is everything in pop music, and Marilyn Manson hit a zeitgeist in the mid-'90s with Antichrist Superstar, riding the post-alternative wave to the top of the charts with his dark, arty, industrial metal. He was a proud shock artist and a great interview, one of the few rockers of his time who stood his own against his attackers by offering articulate, informed counterarguments to their blustering rage. Like any shock rocker, though, the novelty wears thin fast, and what was once scary turns into self-parody. Manson, no stranger to rock history, attempted to circumvent this by turning quickly to the left with the glam-soaked Mechanical Animals, but in doing so he lost huge portions of his audience, and by the time he returned to scary industrial metal form on Holy Wood in 2000, he seemed out of date and few critics or fans paid attention. Three years later, he unleashed his fifth album, The Golden Age of Grotesque, and he still seemed out of step with the times, but there was a difference - he sounded comfortable with that development. Also, by 2003, rock, particularly heavy metal, was in desperate need of artists with a grand vision and ambition, which Manson has in spades. After all, The Golden Age is designed to be a modern update of German art, vaudeville, and decadent Hollywood glamour of the '30s, all given a thudding metallic grind, of course. In an era when heavy rockers have no idea what happened in the '80s, much less the '30s, it's hard not to warm to this, even if his music isn't your own personal bag.
Musically, Manson isn't departing from his basic sound - he's following through on the return to basics Holy Wood represented - but his first self-production has resulted in an album that feels light and nimble, even though it's drenched in distortion and screams. It feels as if Manson now feels liberated from not being consistently in the spotlight, and his music has opened up as well. With that new freedom, he gets silly on occasion - the gibberish on the ridiculously titled "This Is the New Sh*t," the appropriation of Faith No More's "Be Aggressive" for "mOBSCENE," the lyric "You are the church/I am the steeple/When we f*ck we are God's People" - but instead of knocking the record off track, they are part of the big picture on this oversized album. What matters here, as it always does on a Marilyn Manson album, is the overarching concept, and while The Golden Age of Grotesque has some kind of theme, its particulars aren't discernible, but the overall feeling resonates strongly. This messy, unruly, noisy burlesque may fall on its face, but it puts itself in the position where it can either stand or fall, and, unlike in the past, Manson isn't taking himself so seriously that he sounds stiff. It all adds up to a very good album - maybe not his best, and certainly not one that will attract the most attention, but it's a hell of a lot grander than what his peers are producing, and holds its own with his previous records. It's also a bit more fun, too, and that counts for a lot.
Tracklist:
01. Thaeter
02. This Is The New Shit
03. mOBSCENE
04. Doll-Dagga Buzz-Buzz Ziggety-Zag
05. Use Your Fist And Not Your Mouth
06. The Golden Age Of Grotesque
07. (s)AINT
08. Ka-Boom Ka-Boom
09. Slutgarden
10. Spade
11. Para-Noir
12. The Bright Young Things
13. Better Of Two Evils
14. Vodevil
15. Obsequey (The Death Of Art)
16. Tainted Love (Bonus track)
17. Baboon Rape party (Bonus track)
18. Paranoiac (Bonus track)

Total time: 01:08:02

Exact Audio Copy V0.99 prebeta 5 from 4. May 2009

Отчёт EAC об извлечении, выполненном 20. января 2010, 20:45

MARILYN MANSON / THE GOLDEN AGE OF GROTESQUE

Дисковод: SONY DVD-ROM DDU1621 Adapter: 1 ID: 1

Режим чтения : Достоверность
Использование точного потока : Да
Отключение кэша аудио : Да
Использование указателей C2 : Нет

Коррекция смещения при чтении : 12
Способность читать области Lead-in и Lead-out : Нет
Заполнение пропущенных сэмплов тишиной : Да
Удаление блоков с тишиной в начале и конце : Нет
При вычислениях CRC использовались нулевые сэмплы : Да
Интерфейс : Встроенный Win32-интерфейс для Win NT/2000

Выходной формат : Внутренние WAV-операции
Формат сэмплов : 44.100 Гц; 16 бит; стерео


TOC извлечённого CD

Трек | Старт | Длительность | Начальный сектор | Конечный сектор
––––––––––––––––––––––––––––––––––-
1 | 0:00.00 | 1:14.02 | 0 | 5551
2 | 1:14.02 | 4:19.50 | 5552 | 25026
3 | 5:33.52 | 3:25.53 | 25027 | 40454
4 | 8:59.30 | 4:11.00 | 40455 | 59279
5 | 13:10.30 | 3:34.60 | 59280 | 75389
6 | 16:45.15 | 4:05.35 | 75390 | 93799
7 | 20:50.50 | 3:42.00 | 93800 | 110449
8 | 24:32.50 | 4:02.65 | 110450 | 128664
9 | 28:35.40 | 4:06.55 | 128665 | 147169
10 | 32:42.20 | 4:34.45 | 147170 | 167764
11 | 37:16.65 | 6:01.02 | 167765 | 194841
12 | 43:17.67 | 4:19.00 | 194842 | 214266
13 | 47:36.67 | 3:48.15 | 214267 | 231381
14 | 51:25.07 | 4:39.65 | 231382 | 252371
15 | 56:04.72 | 1:48.05 | 252372 | 260476
16 | 57:53.02 | 3:25.03 | 260477 | 275854
17 | 61:18.05 | 2:46.37 | 275855 | 288341
18 | 64:04.42 | 3:57.63 | 288342 | 306179


Характеристики диапазона извлечения и сообщения об ошибках

Выбранный диапазон

Имя файла F:\Раздачи\Marilyn Manson\Marilyn Manson-The Golden Age Of Grotesque [Japan Bonus Tracks]\MARILYN MANSON - THE GOLDEN AGE OF GROTESQUE.wav

Пиковый уровень 100.0 %
Качество диапазона 99.9 %
CRC теста 762D7C06
CRC копии 762D7C06
Копирование… OK

Ошибок не произошло


AccurateRip: сводка

Трек 1 нет в базе данных
Трек 2 нет в базе данных
Трек 3 нет в базе данных
Трек 4 нет в базе данных
Трек 5 нет в базе данных
Трек 6 нет в базе данных
Трек 7 нет в базе данных
Трек 8 нет в базе данных
Трек 9 нет в базе данных
Трек 10 нет в базе данных
Трек 11 нет в базе данных
Трек 12 нет в базе данных
Трек 13 нет в базе данных
Трек 14 нет в базе данных
Трек 15 нет в базе данных
Трек 16 нет в базе данных
Трек 17 нет в базе данных
Трек 18 нет в базе данных

Ни одного трека нет в базе AccurateRip

Конец отчёта

[CUETools log; Date: 08.04.2019 21:29:30; Version: 2.1.4]
[CTDB TOCID: 6zQCg4m7eseTaGpqN7lKJUpw0KM-] found.
Track | CTDB Status
1 | (88/88) Accurately ripped
2 | (86/88) Accurately ripped
3 | (88/88) Accurately ripped
4 | (88/88) Accurately ripped
5 | (88/88) Accurately ripped
6 | (88/88) Accurately ripped
7 | (88/88) Accurately ripped
8 | (87/88) Accurately ripped
9 | (88/88) Accurately ripped
10 | (88/88) Accurately ripped
11 | (87/88) Accurately ripped
12 | (88/88) Accurately ripped
13 | (88/88) Accurately ripped
14 | (88/88) Accurately ripped
15 | (88/88) Accurately ripped
16 | (87/88) Accurately ripped
17 | (88/88) Accurately ripped
18 | (87/88) Accurately ripped
[AccurateRip ID: 002be757-02537a8c-190ff212] found.
Track [ CRC | V2 ] Status
01 [5b4583e1|b2cf0376] (04+16/20) Accurately ripped
02 [6acb49ca|8c58aaa8] (05+16/21) Accurately ripped
03 [00564d3e|a5914951] (05+16/21) Accurately ripped
04 [1e21dedf|8c4844a7] (05+16/21) Accurately ripped
05 [932ba57d|6a461497] (05+16/21) Accurately ripped
06 [eb2e6c57|454e504b] (05+16/21) Accurately ripped
07 [34e5a181|03b9738f] (05+16/21) Accurately ripped
08 [b2da62d7|79d9720c] (05+16/21) Accurately ripped
09 [081375bb|65193235] (05+16/21) Accurately ripped
10 [f991a474|57229ee7] (05+16/21) Accurately ripped
11 [75e171ec|346683c9] (05+16/21) Accurately ripped
12 [d4889174|2b323b2f] (05+16/21) Accurately ripped
13 [48c3283c|9ef3c17e] (05+16/21) Accurately ripped
14 [6bf28d09|c661e19d] (05+16/21) Accurately ripped
15 [4ccc9c6a|d7fb5396] (05+16/21) Accurately ripped
16 [ae452857|5e6fdc04] (05+16/21) Accurately ripped
17 [8a170166|5bb1d3a5] (05+16/21) Accurately ripped
18 [e86254d4|4e874841] (05+16/21) Accurately ripped

Track Peak [ CRC32 ] [W/O NULL] [ LOG ]
– 99,9 [762D7C06] [4B7DBB44] CRC32
01 49,5 [831663E0] [FEBC0969]
02 97,2 [4716029D] [D2FC722B]
03 98,8 [43FE6E1F] [2D0A2826]
04 97,2 [ADAEC3CB] [F88A39E3]
05 97,2 [70F44D7D] [8F31566B]
06 97,2 [CB98456D] [99AAC595]
07 98,8 [6215EED8] [8951C042]
08 97,2 [29443500] [F54484D4]
09 97,2 [2E0E63DE] [B9A54323]
10 97,2 [C39B7FCF] [D97046CA]
11 97,6 [10319547] [87AF0C0C]
12 97,2 [F2A9D92E] [9C940C89]
13 97,2 [EC3739EA] [C643D97E]
14 97,2 [9AFD25D0] [91B04E79]
15 99,9 [4FDAC752] [A8EB30FC]
16 95,3 [CE48FC42] [86CFAA1E]
17 98,8 [0EE4BEBB] [BA4D4EA1]
18 97,2 [F9302370] [C2B8982D]

Thanks to Brudjik