Tags
Language
Tags

Mariza - Transparente (2005)

Posted By: popsakov
Mariza - Transparente (2005)

Mariza - Transparente (2005)
EAC Rip | FLAC (Tracks) + Cue + Log ~ 212 Mb | MP3 CBR320 ~ 100 Mb
Full Scans ~ 66 Mb | 00:41:31 | RAR 5% Recovery
Capitol Records / World Connection / EMI Music Portugal #7243 4 77646 2 2
Fado / World / Folk

Transparente is Mariza's "big" album, it seems, the one designed to make her more than just the shining star of the new fado. The music connects the dots between Portugal and Brazil, giving an international quality to it all. Her voice is as crystal clear as ever, and production by Jacques Morelenbaum is wonderfully transparent. Yet there's a sheen to it all that seems intended to rub off any rough edges. You can hear it in the soft strings that cushion "Meu Fado Meu." It just seems to be trying too hard, rather than letting the music unfold. It's apparent, too, in the fact that the songs are all short – the longest barely passes three-and-a-half minutes. Not that it's not a gorgeous album; it enfolds the ears like silk; Mariza herself has never sounded more seductive, and the cello on "Quando Me Sinto So" is as warm and inviting as a lover's kiss. But unlike her previous work, there seems an air of calculation about all this, the sense of deliberately seeking out a larger audience rather than allowing the music to speak for itself. She'll never sing a bad note, and there's absolutely nothing to fault with this album. The arrangements are understatedly lush, the playing impeccable, everything as close to perfect as it's possible to be. But at heart, it just doesn't feel real.

~ Chris Nickson, All Music

***************

Mariza - Transparente (2005)

Track List:

01. Ha Uma Musica Do Povo [0:03:10.65]
02. Meu Fado Meu [0:03:26.17]
03. Recusa [0:02:16.52]
04. Quando Me Sinto So [0:02:57.45]
05. Montras [0:03:34.41]
06. Ha Palavras Que Nos Beijam [0:02:52.44]
07. Transparente [0:02:29.02]
08. Fado Portugues De Nos [0:02:23.72]
09. Malmequer [0:03:11.14]
10. Medo [0:03:10.73]
11. Toada Do Desengano [0:03:35.13]
12. Fado Tordo [0:02:13.49]
13. Duas Lagrimas De Orvalho [0:02:36.48]
14. Desejos Vaos [0:03:31.40]

Exact Audio Copy V0.99 prebeta 4 from 23. January 2008

EAC extraction logfile from 31. December 2008, 11:45

Mariza / Transparente

Used drive : HL-DT-STDVDRAM GSA-H10N Adapter: 1 ID: 0

Read mode : Secure
Utilize accurate stream : Yes
Defeat audio cache : Yes
Make use of C2 pointers : No

Read offset correction : 667
Overread into Lead-In and Lead-Out : No
Fill up missing offset samples with silence : Yes
Delete leading and trailing silent blocks : No
Null samples used in CRC calculations : Yes
Used interface : Installed external ASPI interface
Gap handling : Appended to previous track

Used output format : User Defined Encoder
Selected bitrate : 1024 kBit/s
Quality : High
Add ID3 tag : No
Command line compressor : C:\Flac\flac.exe
Additional command line options : -8 -V -T "ARTIST=%a" -T "TITLE=%t" -T "ALBUM=%g" -T "DATE=%y" -T "TRACKNUMBER=%n" -T "TOTALTRACKS=%x" -T "GENRE=%m" -T "COMMENT=%e" %s -o %d


TOC of the extracted CD

Track | Start | Length | Start sector | End sector
––––––––––––––––––––––––––––-
1 | 0:00.00 | 3:10.65 | 0 | 14314
2 | 3:10.65 | 3:26.17 | 14315 | 29781
3 | 6:37.07 | 2:16.52 | 29782 | 40033
4 | 8:53.59 | 2:57.45 | 40034 | 53353
5 | 11:51.29 | 3:34.41 | 53354 | 69444
6 | 15:25.70 | 2:52.44 | 69445 | 82388
7 | 18:18.39 | 2:29.02 | 82389 | 93565
8 | 20:47.41 | 2:23.72 | 93566 | 104362
9 | 23:11.38 | 3:11.14 | 104363 | 118701
10 | 26:22.52 | 3:10.73 | 118702 | 133024
11 | 29:33.50 | 3:35.13 | 133025 | 149162
12 | 33:08.63 | 2:13.49 | 149163 | 159186
13 | 35:22.37 | 2:36.48 | 159187 | 170934
14 | 37:59.10 | 3:31.40 | 170935 | 186799
15 | 44:02.50 | 29:55.25 | 198200 | 332849


Track 1

Filename D:\Music\Mariza\[2005] Transparente\01 - Hб uma mъsica do Povo.wav

Pre-gap length 0:00:02.00

Peak level 98.8 %
Track quality 99.9 %
Test CRC C04FE1C7
Copy CRC C04FE1C7
Accurately ripped (confidence 9) [D22B8599]
Copy OK

Track 2

Filename D:\Music\Mariza\[2005] Transparente\02 - Meu Fado Meu.wav

Peak level 98.8 %
Track quality 99.9 %
Test CRC 904CCCAB
Copy CRC 904CCCAB
Accurately ripped (confidence 9) [D4EC3F17]
Copy OK

Track 3

Filename D:\Music\Mariza\[2005] Transparente\03 - Recusa.wav

Peak level 98.8 %
Track quality 99.9 %
Test CRC D22C2C55
Copy CRC D22C2C55
Accurately ripped (confidence 9) [1B8924B5]
Copy OK

Track 4

Filename D:\Music\Mariza\[2005] Transparente\04 - Quando me sinto sу.wav

Pre-gap length 0:00:01.36

Peak level 98.8 %
Track quality 100.0 %
Test CRC 6FB0287F
Copy CRC 6FB0287F
Accurately ripped (confidence 9) [1A03EC30]
Copy OK

Track 5

Filename D:\Music\Mariza\[2005] Transparente\05 - Montras.wav

Peak level 98.8 %
Track quality 100.0 %
Test CRC 30191A11
Copy CRC 30191A11
Accurately ripped (confidence 9) [250E1552]
Copy OK

Track 6

Filename D:\Music\Mariza\[2005] Transparente\06 - Hб palavras que nos beijam.wav

Pre-gap length 0:00:01.36

Peak level 98.8 %
Track quality 100.0 %
Test CRC 8CAF3084
Copy CRC 8CAF3084
Accurately ripped (confidence 8) [EE8A9549]
Copy OK

Track 7

Filename D:\Music\Mariza\[2005] Transparente\07 - Transparente.wav

Pre-gap length 0:00:01.08

Peak level 98.8 %
Track quality 100.0 %
Test CRC 0B4BE4A4
Copy CRC 0B4BE4A4
Accurately ripped (confidence 8) [144C05A1]
Copy OK

Track 8

Filename D:\Music\Mariza\[2005] Transparente\08 - Fado Portuguкs de nуs.wav

Peak level 98.8 %
Track quality 100.0 %
Test CRC 677C55B1
Copy CRC 677C55B1
Accurately ripped (confidence 8) [093C671E]
Copy OK

Track 9

Filename D:\Music\Mariza\[2005] Transparente\09 - Malmequer.wav

Pre-gap length 0:00:01.61

Peak level 98.8 %
Track quality 100.0 %
Test CRC E42FB21D
Copy CRC E42FB21D
Accurately ripped (confidence 8) [2F0C9F1A]
Copy OK

Track 10

Filename D:\Music\Mariza\[2005] Transparente\10 - Medo.wav

Pre-gap length 0:00:01.07

Peak level 98.8 %
Track quality 100.0 %
Test CRC 584E8FC5
Copy CRC 584E8FC5
Accurately ripped (confidence 8) [369EEBE8]
Copy OK

Track 11

Filename D:\Music\Mariza\[2005] Transparente\11 - Toada do desengano.wav

Pre-gap length 0:00:01.48

Peak level 98.8 %
Track quality 99.9 %
Test CRC 743EF698
Copy CRC 743EF698
Accurately ripped (confidence 8) [1F1011C2]
Copy OK

Track 12

Filename D:\Music\Mariza\[2005] Transparente\12 - Fado Tordo.wav

Peak level 98.8 %
Track quality 100.0 %
Test CRC FB173602
Copy CRC FB173602
Accurately ripped (confidence 8) [2A8FD087]
Copy OK

Track 13

Filename D:\Music\Mariza\[2005] Transparente\13 - Duas Lбgrimas de Orvalho.wav

Pre-gap length 0:00:03.08

Peak level 93.1 %
Track quality 100.0 %
Test CRC 62BC2490
Copy CRC 62BC2490
Accurately ripped (confidence 8) [968D2BF5]
Copy OK

Track 14

Filename D:\Music\Mariza\[2005] Transparente\14 - Desejos vгos.wav

Peak level 98.7 %
Track quality 99.9 %
Test CRC C954E7EE
Copy CRC C954E7EE
Accurately ripped (confidence 8) [E72590B4]
Copy OK


All tracks accurately ripped

No errors occurred

End of status report

[CUETools log; Date: 25.09.2018 14:35:23; Version: 2.1.6]
CD-Extra data track length 29:55:25.
[CTDB TOCID: B_EGZE8cV5zMXzFLcSj8YTsV9y8-] found.
Track | CTDB Status
1 | ( 66/117) Accurately ripped
2 | ( 67/117) Accurately ripped
3 | ( 70/117) Accurately ripped, or (1/117) differs in 160 samples @01:29:35-01:29:36
4 | ( 67/117) Accurately ripped, or (1/117) differs in 17 samples @00:40:46
5 | ( 67/117) Accurately ripped, or (1/117) differs in 10 samples @00:35:13
6 | ( 69/117) Accurately ripped
7 | ( 68/117) Accurately ripped
8 | ( 71/117) Accurately ripped
9 | ( 64/117) Accurately ripped, or (1/117) differs in 100 samples @02:58:67-02:58:68
10 | ( 65/117) Accurately ripped
11 | ( 64/117) Accurately ripped, or (1/117) differs in 65 samples @00:52:67-00:52:68
12 | ( 69/117) Accurately ripped
13 | ( 67/117) Accurately ripped
14 | ( 67/117) Accurately ripped
[AccurateRip ID: 0017ab06-01054139-ce11560f] found.
Track [ CRC | V2 ] Status
01 [d22b8599|9d9b6327] (21+18/41) Accurately ripped
02 [d4ec3f17|1b2ec84f] (19+17/38) Accurately ripped
03 [1b8924b5|01109438] (19+18/39) Accurately ripped
04 [1a03ec30|04263654] (19+17/38) Accurately ripped
05 [250e1552|618f42d4] (21+18/41) Accurately ripped
06 [ee8a9549|cee9ae97] (20+18/40) Accurately ripped
07 [144c05a1|fd3f97c7] (19+15/36) Accurately ripped
08 [093c671e|04500037] (19+16/37) Accurately ripped
09 [2f0c9f1a|bb7ee468] (19+14/35) Accurately ripped
10 [369eebe8|616694c9] (19+14/35) Accurately ripped
11 [1f1011c2|7f841a38] (19+14/35) Accurately ripped
12 [2a8fd087|eff50843] (20+16/38) Accurately ripped
13 [968d2bf5|244433aa] (18+15/35) Accurately ripped
14 [e72590b4|d7ba7db4] (20+15/37) Accurately ripped
Offsetted by -697:
01 [56af635d] (00/41) No match (V2 was not tested)
02 [f90e6b27] (00/38) No match (V2 was not tested)
03 [c88d0793] (00/39) No match (V2 was not tested)
04 [b75a34bb] (00/38) No match (V2 was not tested)
05 [162d7478] (00/41) No match (V2 was not tested)
06 [07c0c9d2] (00/40) No match (V2 was not tested)
07 [e4efd5af] (00/36) No match (V2 was not tested)
08 [bf39db8c] (00/37) No match (V2 was not tested)
09 [81a94aeb] (00/35) No match (V2 was not tested)
10 [9043dc1d] (00/35) No match (V2 was not tested)
11 [a6902cb8] (00/35) No match (V2 was not tested)
12 [7cc0ce9c] (00/38) No match (V2 was not tested)
13 [fc88b754] (00/35) No match (V2 was not tested)
14 [65dac331] (00/37) No match (V2 was not tested)

Track Peak [ CRC32 ] [W/O NULL] [ LOG ]
– 98,8 [3ACCF80F] [6ED74937]
01 98,8 [C04FE1C7] [EF10268E] CRC32
02 98,8 [904CCCAB] [5EDDF3F9] CRC32
03 98,8 [D22C2C55] [F43945D0] CRC32
04 98,8 [6FB0287F] [BAD39C91] CRC32
05 98,8 [30191A11] [85B27571] CRC32
06 98,8 [8CAF3084] [3CEBAB9B] CRC32
07 98,8 [0B4BE4A4] [12E90C52] CRC32
08 98,8 [677C55B1] [0EED3210] CRC32
09 98,8 [E42FB21D] [D9F56355] CRC32
10 98,8 [584E8FC5] [151E94C7] CRC32
11 98,8 [743EF698] [BD888E6E] CRC32
12 98,8 [FB173602] [C1449706] CRC32
13 93,1 [62BC2490] [6151BFE7] CRC32
14 98,7 [C954E7EE] [D4B8EDFF] CRC32

Mariza - Transparente (2005)


All thanks go to the original ripper(s) …

>>> Mariza in my Blog <<<

DOWNLOAD: