Subcategories
Please register here if you want to download anything!

If domain in your address bar is different from the list below
PLEASE LEAVE THAT SITE IMMEDIATELY
❗IT'S A DANGEROUS FAKE❗



Spicy Magazines for Men! ;-)

Mark-Anthony Turnage & John Scofield - Scorched (2003)

Posted By: gribovar
Mark-Anthony Turnage & John Scofield - Scorched (2003)

Mark-Anthony Turnage & John Scofield - Scorched (2003)
EAC Rip | WavPack (image+.cue+log) - 367 MB | MP3 CBR 320 kbps (LAME 3.93) - 163 MB | Covers (12 MB) included
Genre: Jazz, Fusion, Classical | RAR 3% Rec. | Label: Deutsche Grammophon (474 729-2)

Commissioned by the Society of Friends and Patrons of the Frankfurt Radio Symphony Orchestra and recorded at its premiere performance in September of 2002, Scorched is an extended suite of large-scale reconceptions of guitarist John Scofield's jazz compositions, scored for big band, symphony orchestra, and guitar trio. English composer Mark-Anthony Turnage has been working in the borderland between jazz and classical music since his early days at the feet of Gunther Schuller, and his orchestral elaborations on Scofield's original themes are surprisingly insightful and exciting. Scofield himself leads the trio, which also includes the legendary drummer Peter Erskine and electric bassist John Patitucci. Turnage avoids the standard classical-jazz crossover error of trying to make an ensemble this large actually swing; instead, he creates interest with dense but agile harmonic movement and crisp rhythmic change-ups; when Scofield and his crew take over periodically in a more standard jazz idiom, the effect is one of bracing contrast. The big-band-and-orchestra generally alternates with the trio rather than plays alongside it, but there are some thrilling moments of interplay, such as at the end of "Fat Lip 2" and the brilliant "Make Me 2." Scofield's solo playing on the contemplative "Cadenza" is another particular treat.
Tracklist:
01. Make Me 1
02. Make Me 2
03. Kubrick
04. Away With Words
05. Fat Lip 1
06. Fat Lip 2
07. Deadzy
08. Trim
09. Nocturnal Mission
10. Let's Say We Did
11. The Nag
12. Cadenza
13. Gil B643
14. Protocol

Total time: 01:03:53

Exact Audio Copy V1.0 beta 3 from 29. August 2011

EAC extraction logfile from 19. July 2012, 8:16

Mark-Anthony Turnage & John Scofield / Scorched

Used drive : HL-DT-STBDDVDRW GBC-H20N Adapter: 1 ID: 0

Read mode : Secure
Utilize accurate stream : Yes
Defeat audio cache : Yes
Make use of C2 pointers : No

Read offset correction : 667
Overread into Lead-In and Lead-Out : No
Fill up missing offset samples with silence : Yes
Delete leading and trailing silent blocks : No
Null samples used in CRC calculations : Yes
Used interface : Native Win32 interface for Win NT & 2000

Used output format : User Defined Encoder
Selected bitrate : 1024 kBit/s
Quality : High
Add ID3 tag : No
Command line compressor : C:\Program Files\Exact Audio Copy\wavpack.exe
Additional command line options : -hm %source% %dest%


TOC of the extracted CD

Track | Start | Length | Start sector | End sector
––––––––––––––––––––––––––––-
1 | 0:00.00 | 2:56.24 | 0 | 13223
2 | 2:56.24 | 3:02.16 | 13224 | 26889
3 | 5:58.40 | 4:27.72 | 26890 | 46986
4 | 10:26.37 | 6:34.71 | 46987 | 76607
5 | 17:01.33 | 3:07.47 | 76608 | 90679
6 | 20:09.05 | 4:37.02 | 90680 | 111456
7 | 24:46.07 | 5:21.55 | 111457 | 135586
8 | 30:07.62 | 3:31.25 | 135587 | 151436
9 | 33:39.12 | 3:50.34 | 151437 | 168720
10 | 37:29.46 | 6:27.09 | 168721 | 197754
11 | 43:56.55 | 5:31.68 | 197755 | 222647
12 | 49:28.48 | 3:12.20 | 222648 | 237067
13 | 52:40.68 | 7:23.50 | 237068 | 270342
14 | 60:04.43 | 3:48.02 | 270343 | 287444


Range status and errors

Selected range

Filename C:\Users\ProgDog\Music\06 - 2004 - Scorched (with Mark-Antony Turnage)\Mark-Anthony Turnage & John Scofield - Scorched.wav

Peak level 98.8 %
Extraction speed 6.3 X
Range quality 99.9 %
Test CRC F36C3587
Copy CRC F36C3587
Copy OK

No errors occurred


AccurateRip summary

Track 1 accurately ripped (confidence 15) [B00FDF4F] (AR v1)
Track 2 accurately ripped (confidence 15) [A4F540C6] (AR v1)
Track 3 accurately ripped (confidence 15) [27E8F6E2] (AR v1)
Track 4 accurately ripped (confidence 14) [6D72B9B4] (AR v1)
Track 5 accurately ripped (confidence 13) [76999B2A] (AR v1)
Track 6 accurately ripped (confidence 14) [0577ADEB] (AR v1)
Track 7 accurately ripped (confidence 15) [0D907835] (AR v1)
Track 8 accurately ripped (confidence 14) [C040C588] (AR v1)
Track 9 accurately ripped (confidence 15) [57F3051E] (AR v1)
Track 10 accurately ripped (confidence 15) [91C4D1C8] (AR v1)
Track 11 accurately ripped (confidence 16) [8533DB5D] (AR v1)
Track 12 accurately ripped (confidence 15) [53586091] (AR v1)
Track 13 accurately ripped (confidence 15) [B2D909E7] (AR v1)
Track 14 accurately ripped (confidence 14) [796533BE] (AR v1)

All tracks accurately ripped

End of status report

–– CUETools DB Plugin V2.1.3

[CTDB TOCID: E5NCikXv3jjEBcDkY69edkQCHFU-] found, Submit result: E5NCikXv3jjEBcDkY69edkQCHFU- has been confirmed
[f329f119] (14/14) Accurately ripped


==== Log checksum 5F2E2ED312CA59553D9FF82194201A618FAFA0320FB5D389536FCBED0E00CA41 ====

[CUETools log; Date: 26.03.2019 15:53:30; Version: 2.1.4]
[CTDB TOCID: E5NCikXv3jjEBcDkY69edkQCHFU-] found.
Track | CTDB Status
1 | (33/33) Accurately ripped
2 | (33/33) Accurately ripped
3 | (33/33) Accurately ripped
4 | (33/33) Accurately ripped
5 | (32/33) Accurately ripped
6 | (33/33) Accurately ripped
7 | (32/33) Accurately ripped
8 | (32/33) Accurately ripped
9 | (33/33) Accurately ripped
10 | (33/33) Accurately ripped
11 | (32/33) Accurately ripped
12 | (32/33) Accurately ripped
13 | (32/33) Accurately ripped
14 | (32/33) Accurately ripped
[AccurateRip ID: 001f1472-01522ceb-ac0ef80e] found.
Track [ CRC | V2 ] Status
01 [b00fdf4f|ca4203d2] (15+16/31) Accurately ripped
02 [a4f540c6|ed0a9a1c] (15+16/31) Accurately ripped
03 [27e8f6e2|c1c914be] (15+16/31) Accurately ripped
04 [6d72b9b4|9575100d] (14+16/30) Accurately ripped
05 [76999b2a|089ad520] (13+16/29) Accurately ripped
06 [0577adeb|2cc0eb66] (14+16/30) Accurately ripped
07 [0d907835|bcd9b992] (15+16/31) Accurately ripped
08 [c040c588|e1a20a86] (14+15/29) Accurately ripped
09 [57f3051e|3b22830f] (15+16/31) Accurately ripped
10 [91c4d1c8|cde4257f] (15+16/31) Accurately ripped
11 [8533db5d|207cfcf9] (16+16/32) Accurately ripped
12 [53586091|4ff8710b] (15+16/31) Accurately ripped
13 [b2d909e7|10b73c0a] (15+16/31) Accurately ripped
14 [796533be|4179a74c] (14+16/30) Accurately ripped
Offsetted by -681:
01 [fd1dcb68] (00/31) No match (V2 was not tested)
02 [7559c3c5] (00/31) No match (V2 was not tested)
03 [4f6b8193] (00/31) No match (V2 was not tested)
04 [3aea90df] (00/30) No match (V2 was not tested)
05 [5f95f254] (00/29) No match (V2 was not tested)
06 [fecfe4ae] (00/30) No match (V2 was not tested)
07 [f2ef4e5f] (00/31) No match (V2 was not tested)
08 [ddd83abf] (00/29) No match (V2 was not tested)
09 [16859c75] (00/31) No match (V2 was not tested)
10 [d8ac313f] (00/31) No match (V2 was not tested)
11 [327f6162] (00/32) No match (V2 was not tested)
12 [90486631] (00/31) No match (V2 was not tested)
13 [5ab487bd] (00/31) No match (V2 was not tested)
14 [25652a9a] (00/30) No match (V2 was not tested)

Track Peak [ CRC32 ] [W/O NULL] [ LOG ]
– 98,8 [F36C3587] [86F294D8] CRC32
01 94,4 [75FF13AD] [E706A5A2]
02 98,0 [1CA1F78B] [FA004AE6]
03 95,7 [C81847D1] [9FE9535D]
04 97,0 [09260CB7] [F9919B40]
05 96,8 [3A560352] [14BC8E2A]
06 98,8 [783D2C40] [4CFFE2C0]
07 98,8 [4B0EFFF9] [B2329586]
08 98,8 [904E4A19] [A2AD272B]
09 98,8 [7AB15A51] [B3C6909F]
10 98,8 [30AD39F8] [EA678641]
11 98,8 [149265D6] [F9BE4A6C]
12 49,9 [77C7F1E1] [92A89F17]
13 98,8 [3D4A8D29] [60E035DD]
14 98,8 [E66757D7] [1954926A]

Thanks to arizonadream

See also: