Subcategories

Mark Varney Project - Centrifugal Funk (1991) {Legato}

Posted By: tiburon
Mark Varney Project - Centrifugal Funk (1991) {Legato}

Mark Varney Project - Centrifugal Funk (1991) {Legato}
EAC 0.99pb4 | FLAC Image level 8 | Cue+Log | Full Scans 300dpi | 414MB + 5% Recovery
MP3 CBR 320 Kbps | 141MB + 5% Recovery
Genre: Fusion, Jazz-Funk

Centrifugal Funk is the second and final studio album by the Mark Varney Project (MVP), released in 1991 through Legato Records; a remastered edition was reissued in 2004 through Tone Center Records. This incarnation of the group is a collaboration between guitarists Frank Gambale, Brett Garsed and Shawn Lane. It consists primarily of covers of existing jazz fusion compositions, save for one track performed by Lane—"Lane's Blitz"—which he later dismissed as an impromptu warm-up rather than a planned solo, and thus his dislike for it. Varney, however, disputes Lane's version of events.
Track List
01. Actual Proof 7:36
02. So What 9:41
03. Hey Tee Bone 5:30
04. Tokyo Blue 7:15
05. Splatch 11:57
06. Elegant People 9:56
07. Lane's Blitz 0:39
08. Lovestruck 8:26

musicians
Frank Gambale — Lead Guitar
Brett Garsed — Lead guitar
Shawn Lane — Lead Guitar
Mike O'Neill — Rhythm Guitar
Jimmy Earl — Bass
Steve Tavaglione — Saxes and E.W.I.
Freddy Raves — Keyboards
Joey Heredia — Drums
Kevin Picard — Percussion

Produced by Jimmy Earl and Mark Varney


Exact Audio Copy V0.99 prebeta 4 from 23. January 2008

Отчёт EAC об извлечении, выполненном 6. июля 2010, 0:15

Mark Varney Project / Centrifugal Funk

Дисковод: ASUS DRW-20B1LT Adapter: 4 ID: 0

Режим чтения : Достоверность
Использование точного потока : Да
Отключение кэша аудио : Да
Использование указателей C2 : Нет

Коррекция смещения при чтении : 6
Способность читать области Lead-in и Lead-out : Нет
Заполнение пропущенных сэмплов тишиной : Да
Удаление блоков с тишиной в начале и конце : Нет
При вычислениях CRC использовались нулевые сэмплы : Да
Интерфейс : Встроенный Win32-интерфейс для Win NT/2000

Выходной формат : Пользовательский кодировщик
Выбранный битрейт : 768 kBit/s
Качество : Высокий
Добавление ID3-тэга : Нет
Утилита сжатия : D:\Program Files\Exact Audio Copy\Flac\Flac.exe
Дополнительные параметры : -8 –delete-input-file -o "D:\CDImage.flac" -V %s


TOC извлечённого CD

Трек | Старт | Длительность | Начальный сектор | Конечный сектор
––––––––––––––––––––––––––––––––––-
1 | 0:00.00 | 7:36.61 | 0 | 34260
2 | 7:36.61 | 9:42.04 | 34261 | 77914
3 | 17:18.65 | 5:31.00 | 77915 | 102739
4 | 22:49.65 | 7:18.14 | 102740 | 135603
5 | 30:08.04 | 11:57.52 | 135604 | 189430
6 | 42:05.56 | 9:56.68 | 189431 | 234198
7 | 52:02.49 | 0:36.13 | 234199 | 236911
8 | 52:38.62 | 8:29.19 | 236912 | 275105


Характеристики диапазона извлечения и сообщения об ошибках

Выбранный диапазон

Имя файла D:\Mark Varney Project - Centrifugal Funk.wav

Пиковый уровень 94.0 %
Качество диапазона 100.0 %
CRC теста BA893FC3
CRC копии BA893FC3
Копирование… OK

Ошибок не произошло


AccurateRip: сводка

Трек 1 нет в базе данных
Трек 2 нет в базе данных
Трек 3 нет в базе данных
Трек 4 нет в базе данных
Трек 5 нет в базе данных
Трек 6 нет в базе данных
Трек 7 нет в базе данных
Трек 8 нет в базе данных

Ни одного трека нет в базе AccurateRip

Конец отчёта


––––––––––––––––––––––––––––––––––––––––
Analyzed: Mark Varney Project / Centrifugal Funk
––––––––––––––––––––––––––––––––––––––––

DR Peak RMS Duration Track
––––––––––––––––––––––––––––––––––––––––
DR12 -0.54 dB -14.14 dB 7:37 01-Actual Proof
DR12 -0.54 dB -14.16 dB 9:42 02-So What
DR12 -0.54 dB -13.30 dB 5:31 03-Hey Tee Bone
DR13 -0.54 dB -15.38 dB 7:18 04-Tokyo Blue
DR12 -0.54 dB -14.50 dB 11:58 05-Splatch
DR12 -0.54 dB -14.40 dB 9:57 06-Elegant People
DR11 -3.31 dB -16.58 dB 0:36 07-Lane's Blitz
DR13 -0.54 dB -15.07 dB 8:29 08-Lovestruck
––––––––––––––––––––––––––––––––––––––––

Number of tracks: 8
Official DR value: DR12

Samplerate: 44100 Hz
Channels: 2
Bits per sample: 16
Bitrate: 945 kbps
Codec: FLAC
================================================================================

Mark Varney Project - Centrifugal Funk (1991) {Legato}
Mark Varney Project - Centrifugal Funk (1991) {Legato}
Mark Varney Project - Centrifugal Funk (1991) {Legato}


Thanks to the original ripper